<?xml version="1.0" standalone="no"?><!DOCTYPE svg PUBLIC "-//W3C//DTD SVG 1.1//EN" "http://www.w3.org/Graphics/SVG/1.1/DTD/svg11.dtd" ><svg xmlns="http://www.w3.org/2000/svg"><metadata></metadata><defs><font id="theme-font" horiz-adv-x="11594"><font-face font-family="theme-font" font-weight="400" font-stretch="normal" units-per-em="5000" panose-1="2 0 5 3 0 0 0 0 0 0" ascent="5000" descent="0" x-height="0" bbox="-32 -19 11595 5033" underline-thickness="0" underline-position="50" unicode-range="U+ea01-ea31" /><missing-glyph horiz-adv-x="0"  /><glyph glyph-name="angle-down" unicode="&#xea01;" d="M7946 4732 q-131 132 -295 201 q-159 67 -329.5 67 q-170.5 0 -329.5 -67 q-164 -69 -296 -201 l-2589 -2589 l-2589 2589 q-132 132 -296 201 q-159 67 -329 67 q-170 0 -329 -67 q-164 -69 -296 -201 q-132 -132 -201 -296 q-67 -159 -67 -329 q0 -170 67 -329 q69 -164 201 -296 l3214 -3214 q85 -85 202 -149 q106 -58 221 -89 q110 -30 202.5 -30 q92.5 0 201.5 30 q116 31 221 89 q117 64 202 149 l3214 3214 q132 132 201 296 q67 159 67 329 q0 170 -67 329 q-69 164 -201 296 Z" /><glyph glyph-name="angle-left" unicode="&#xea02;" d="M3859 163 q107 107 145 246 q36 134 0 269 q-38 139 -145 246 l-1576 1576 l1576 1576 q107 107 145 246 q36 135 0 269 q-38 139 -145 246 q-107 107 -246 145 q-135 37 -270 0 q-138 -38 -245 -145 l-1957 -1957 q-52 -51 -90 -122 q-35 -65 -55 -135 q-18 -67 -18 -123 q0 -56 18 -123 q20 -70 55 -135 q38 -71 90 -122 l1957 -1957 q107 -107 245 -145 q135 -37 270 0 q139 38 246 145 Z" /><glyph glyph-name="angle-right" unicode="&#xea03;" d="M163 4837 q-107 -107 -145 -246 q-37 -134 0 -269 q38 -139 145 -246 l1576 -1576 l-1576 -1576 q-107 -107 -145 -246 q-37 -135 0 -269 q38 -139 145 -246 q107 -107 246 -145 q134 -37 269 0 q139 38 246 145 l1956 1957 q52 51 91 122 q35 65 54 135 q18 67 18 123 q0 56 -18 123 q-19 70 -54 135 q-39 71 -91 122 l-1956 1957 q-107 107 -246 145 q-135 37 -269 0 q-139 -38 -246 -145 Z" /><glyph glyph-name="angle-up" unicode="&#xea04;" d="M268 268 q132 -132 296 -201 q159 -67 329 -67 q170 0 329 67 q164 69 296 201 l2589 2589 l2589 -2589 q132 -132 296 -201 q159 -67 329.5 -67 q170.5 0 329.5 67 q164 69 295.5 201 q131.5 132 200.5 296 q67 159 67 329 q0 170 -67 329 q-69 164 -201 296 l-3214 3214 q-85 85 -202 149 q-105 58 -221 89 q-109 30 -201.5 30 q-92.5 0 -202.5 -30 q-115 -31 -221 -89 q-117 -64 -202 -149 l-3214 -3214 q-132 -132 -201 -296 q-67 -159 -67 -329 q0 -170 67 -329 q69 -164 201 -296 Z" /><glyph glyph-name="arrow-right" unicode="&#xea05;" d="M7689 2353 q27 27 37 84 q5 31 5 84 q0 53 -5 84 q-10 57 -37 84 q0 14 -6 25 q-4 7 -14.5 17.5 q-10.5 10.5 -14.5 16.5 q-7 11 -7 25 l-1 11 q-4 12 -11 20 q-11 11 -30 11 l-2059 2059 q-83 83 -190 112 q-104 28 -208 0 q-107 -29 -190 -112 q-83 -83 -112 -190 q-28 -104 0 -208 q29 -107 112 -190 l1345 -1345 l-5883 0 q-125 0 -220 -52.5 q-95 -52.5 -147.5 -147.5 q-52.5 -95 -52.5 -220 q0 -125 52.5 -220 q52.5 -95 147.5 -147.5 q95 -52.5 220 -52.5 l5883 0 l-1345 -1345 q-83 -83 -112 -190 q-28 -104 0 -208 q29 -107 112 -190 q60 -59 147 -94 q79 -32 147 -32 q68 0 147 32 q88 35 147 94 l2101 2101 q11 10 21 26 q21 32 21 58 Z" /><glyph glyph-name="badge" unicode="&#xea06;" d="M3699 2732 l-242 335 q-14 14 -14 37 q0 23 14 37 l242 335 q15 30 12 53 q-4 27 -31 40 l-371 204 q-19 19 -26 30 q-12 20 -12 45 l75 390 q0 30 -14 51 q-16 23 -42 23 l-409 19 q-15 0 -35.5 12 q-20.5 12 -20.5 25 l-111 390 q-14 41 -39.5 55.5 q-25.5 14.5 -53.5 0.5 l-372 -167 q-13 -13 -37 -5 q-21 7 -37 23 l-279 316 q-28 14 -53.5 14 q-25.5 0 -39.5 -14 l-279 -316 q-13 -12 -30 -16 q-12 -2 -44 -2 l-372 167 q-29 0 -54 -14.5 q-25 -14.5 -39 -41.5 l-111 -390 q0 -13 -20.5 -25 q-20.5 -12 -35.5 -12 l-409 -37 q-26 0 -42 -24 q-14 -20 -14 -51 l75 -409 q0 -23 -5 -37 q-9 -25 -33 -37 l-353 -186 q-30 -15 -37 -39 q-8 -27 19 -54 l241 -334 q14 -14 14 -37.5 q0 -23.5 -14 -37.5 l-241 -334 q-15 -30 -12 -54 q4 -26 30 -39 l372 -205 q19 -18 25 -30 q12 -19 12 -44 l-74 -390 q0 -31 14 -51 q15 -24 42 -24 l408 -18 q16 0 36 -12 q20 -12 20 -25 l112 -391 q14 -28 39.5 -39.5 q25.5 -11.5 53.5 2.5 l371 167 q13 13 38 5 q20 -7 37 -23 l279 -316 q9 -9 27.5 -12.5 q18.5 -3.5 37 0 q18.5 3.5 27.5 12.5 l279 316 q13 13 31 16 q11 2 44 2 l390 -148 q27 -14 53 -3 q26 11 40 40 l111 390 q0 13 20.5 25 q20.5 12 35.5 12 l409 19 q26 0 42 23 q14 21 14 51 l-74 409 q0 23 4 37 q9 25 33 38 l353 204 q9 0 16.5 15.5 q7.5 15.5 4.5 31.5 q-4 19 -21 27 ZM1859 1970 q-226 0 -433 88 q-200 85 -355 240 q-155 155 -240 354 q-88 208 -88 433.5 q0 225.5 88 433.5 q85 199 240 354 q155 155 355 240 q207 88 433 88 q226 0 433 -88 q200 -85 354.5 -240 q154.5 -155 239.5 -354 q88 -208 88 -433.5 q0 -225.5 -88 -433.5 q-85 -199 -239.5 -354 q-154.5 -155 -354.5 -240 q-207 -88 -433 -88 ZM2862 1245 q-41 -41 -103.5 -67 q-62.5 -26 -119.5 -26 q-32 0 -46 3 q-21 3 -47 16 l-260 74 l-204 -186 l-19 -18 l335 -1022 q9 -18 22.5 -25.5 q13.5 -7.5 28 -5.5 q14.5 2 23.5 12 l242 297 q12 13 28 17 q9 2 28 2 l371 -112 q18 -8 35 -1.5 q17 6.5 23.5 23 q6.5 16.5 -2.5 34.5 l-335 985 ZM1431 1245 l-260 -74 q-19 0 -46.5 -9.5 q-27.5 -9.5 -46.5 -9.5 q-67 0 -125 26 q-54 23 -98 67 l-316 -966 q-9 -18 -2.5 -35 q6.5 -17 23.5 -23.5 q17 -6.5 35 2.5 l372 112 q18 0 27 -3 q16 -4 28 -16 l242 -297 q9 -18 27 -20.5 q18 -2.5 32.5 9 q14.5 11.5 14.5 29.5 l335 1022 l-19 19 l-223 167 ZM2528 3383 l-428 37 l-167 390 q-7 27 -27.5 41.5 q-20.5 14.5 -46.5 14.5 q-26 0 -47 -14.5 q-21 -14.5 -28 -41.5 l-167 -409 l-427 -18 q-37 -9 -59.5 -39 q-22.5 -30 -18.5 -64 q5 -38 40 -64 l316 -261 l-93 -409 q-8 -35 14 -65 q20 -28 54.5 -37 q34.5 -9 62.5 10 l353 223 l353 -223 q36 -18 70 -9.5 q34 8.5 51.5 37 q17.5 28.5 8.5 64.5 l-93 409 l316 279 q35 18 40 51 q4 31 -18.5 60 q-22.5 29 -58.5 38 Z" /><glyph glyph-name="bell-solid" unicode="&#xea07;" d="M2188 5000 q-86 0 -158 -43 q-71 -41 -112 -112 q-43 -72 -43 -157 l0 -188 q-265 -54 -496 -194 q-227 -137 -397 -343 q-170 -206 -262 -456 q-95 -260 -95 -538 l0 -184 q0 -344 -122.5 -666 q-122.5 -322 -351.5 -580 l-72 -81 q-61 -69 -75 -160 q-14 -91 23.5 -175.5 q37.5 -84.5 115 -134.5 q77.5 -50 170.5 -50 l3750 0 q92 0 169.5 50 q77.5 50 115.5 134 q38 84 23.5 175.5 q-14.5 91.5 -75.5 160.5 l-72 81 q-229 258 -351.5 580 q-122.5 322 -122.5 666 l0 184 q0 278 -95 538 q-92 250 -262 456 q-170 206 -397 343 q-231 140 -496 194 l0 188 q0 85 -43 157 q-41 71 -112 112 q-72 43 -157 43 ZM2630 183 q88 87 135.5 202 q47.5 115 47.5 240 l-1250 0 q0 -125 47 -240 q47 -115 135 -202.5 q88 -87.5 203 -135 q115 -47.5 239.5 -47.5 q124.5 0 239.5 47.5 q115 47.5 203 135.5 Z" /><glyph glyph-name="calendar" unicode="&#xea08;" d="M1708 2356 l-396 0 q-31 0 -57 -15.5 q-26 -15.5 -41.5 -41.5 q-15.5 -26 -15.5 -57 l0 -396 q0 -31 15.5 -57 q15.5 -26 41.5 -41.5 q26 -15.5 57 -15.5 l396 0 q31 0 57 15.5 q26 15.5 41.5 41.5 q15.5 26 15.5 57 l0 396 q0 31 -15.5 57 q-15.5 26 -41.5 41.5 q-26 15.5 -57 15.5 ZM2698 2356 l-397 0 q-30 0 -56.5 -15.5 q-26.5 -15.5 -41.5 -41.5 q-15 -26 -15 -57 l0 -396 q0 -31 15 -57 q15 -26 41.5 -41.5 q26.5 -15.5 56.5 -15.5 l397 0 q30 0 56.5 15.5 q26.5 15.5 41.5 41.5 q15 26 15 57 l0 396 q0 31 -15 57 q-15 26 -41.5 41.5 q-26.5 15.5 -56.5 15.5 ZM3687 2356 l-396 0 q-31 0 -57 -15.5 q-26 -15.5 -41.5 -41.5 q-15.5 -26 -15.5 -57 l0 -396 q0 -31 15.5 -57 q15.5 -26 41.5 -41.5 q26 -15.5 57 -15.5 l396 0 q31 0 57 15.5 q26 15.5 41.5 41.5 q15.5 26 15.5 57 l0 396 q0 31 -15.5 57 q-15.5 26 -41.5 41.5 q-26 15.5 -57 15.5 ZM1708 1365 l-396 0 q-31 0 -57 -15 q-26 -15 -41.5 -41.5 q-15.5 -26.5 -15.5 -56.5 l0 -397 q0 -31 15.5 -57 q15.5 -26 41.5 -41.5 q26 -15.5 57 -15.5 l396 0 q31 0 57 15.5 q26 15.5 41.5 41.5 q15.5 26 15.5 57 l0 397 q0 31 -15.5 57 q-15.5 26 -41.5 41 q-26 15 -57 15 ZM2698 1365 l-397 0 q-30 0 -56.5 -15 q-26.5 -15 -41.5 -41.5 q-15 -26.5 -15 -56.5 l0 -397 q0 -31 15 -57 q15 -26 41.5 -41.5 q26.5 -15.5 56.5 -15.5 l397 0 q30 0 56.5 15.5 q26.5 15.5 41.5 41.5 q15 26 15 57 l0 397 q0 31 -15 57 q-15 26 -41.5 41 q-26.5 15 -56.5 15 ZM3687 1365 l-396 0 q-31 0 -57 -15 q-26 -15 -41.5 -41.5 q-15.5 -26.5 -15.5 -56.5 l0 -397 q0 -31 15.5 -57 q15.5 -26 41.5 -41.5 q26 -15.5 57 -15.5 l396 0 q31 0 57 15.5 q26 15.5 41.5 41.5 q15.5 26 15.5 57 l0 397 q0 31 -15.5 57 q-15.5 26 -41.5 41 q-26 15 -57 15 ZM4509 4443 l0 -605 q0 -135 -67 -250 q-66 -112 -178 -177 q-115 -67 -249 -67 l-313 0 q-134 0 -250 67 q-113 66 -179 177 q-68 115 -68 250 l0 608 l-1409 0 l0 -607 q0 -135 -68 -250 q-66 -111 -179 -177 q-116 -67 -250 -67 l-314 0 q-134 0 -250 67 q-111 65 -177 177 q-67 115 -67 250 l0 604 q-118 -4 -219 -65 q-99 -61 -157 -160 q-60 -104 -60 -223 l0 -3544 q0 -122 62 -227 q59 -102 160 -162 q105 -62 227 -62 l3992 0 q121 0 226 62 q102 60 161 162 q62 105 62 227 l0 3544 q-1 119 -61 223 q-57 99 -156 160 q-101 61 -219 65 ZM4170 478 l-3349 0 q-52 0 -96.5 26.5 q-44.5 26.5 -70.5 70.5 q-26 44 -26 97 l0 1831 q0 52 26 96.5 q26 44.5 70.5 71 q44.5 26.5 96.5 26.5 l3349 0 q53 0 97.5 -26.5 q44.5 -26.5 70.5 -71 q26 -44.5 26 -96.5 l0 -1831 q0 -53 -26 -97 q-26 -44 -70.5 -70.5 q-44.5 -26.5 -97.5 -26.5 ZM984 3670 l310 0 q46 0 85 22.5 q39 22.5 62 61.5 q23 39 23 86 l0 990 q0 46 -23 85 q-23 39 -62 62 q-39 23 -85 23 l-310 0 q-46 0 -85 -23 q-39 -23 -62 -62 q-23 -39 -23 -85 l0 -991 q0 -46 23 -85 q23 -39 62 -61.5 q39 -22.5 85 -22.5 ZM3697 3670 l310 0 q45 0 84.5 22.5 q39.5 22.5 62.5 61.5 q23 39 23 86 l0 990 q0 46 -23 85 q-23 39 -62 62 q-39 23 -85 23 l-310 0 q-46 0 -85 -23 q-39 -23 -62 -62 q-23 -39 -23 -85 l0 -991 q1 -46 24 -85 q23 -39 61.5 -61.5 q38.5 -22.5 84.5 -22.5 Z" /><glyph glyph-name="cart" unicode="&#xea09;" d="M3959 1459 q-127 0 -243 -49 q-111 -48 -197.5 -134 q-86.5 -86 -133.5 -198 q-50 -116 -50 -242.5 q0 -126.5 50 -242.5 q47 -112 133.5 -198.5 q86.5 -86.5 197.5 -133.5 q116 -49 243 -49 q127 0 242 49 q112 47 198.5 133.5 q86.5 86.5 133.5 198.5 q49 116 49 242.5 q0 126.5 -49 242.5 q-47 112 -133.5 198 q-86.5 86 -198.5 134 q-115 49 -242 49 ZM3959 586 q-68 0 -125 33.5 q-57 33.5 -90.5 91 q-33.5 57.5 -33.5 125 q0 67.5 33.5 125 q33.5 57.5 90.5 91 q57 33.5 125 33.5 q68 0 125 -33.5 q57 -33.5 90.5 -91 q33.5 -57.5 33.5 -125 q0 -67.5 -33.5 -125 q-33.5 -57.5 -90.5 -91 q-57 -33.5 -125 -33.5 ZM4960 3868 q-26 34 -65 53 q-39 19 -82 19 l-3659 0 l-168 704 q-15 64 -66 104 q-51 40 -116 40 l-617 0 q-51 0 -94 -25 q-43 -25 -68 -68 q-25 -43 -25 -94 q0 -51 25 -94 q25 -43 68 -68 q43 -25 94 -25 l470 0 l607 -2543 q16 -64 66.5 -104 q50.5 -40 115.5 -40 l2912 0 q64 0 115 39.5 q51 39.5 66 102.5 l456 1839 q10 42 1 84 q-9 42 -36 76 ZM4212 2101 l-2618 0 l-350 1465 l3330 0 l-362 -1465 ZM1696 1459 q-127 0 -243 -49 q-112 -48 -198 -134 q-86 -86 -134 -198 q-49 -116 -49 -242.5 q0 -126.5 49 -242.5 q48 -112 134 -198.5 q86 -86.5 198 -133.5 q116 -49 242.5 -49 q126.5 0 242.5 49 q112 47 198.5 133.5 q86.5 86.5 133.5 198.5 q49 116 49 242.5 q0 126.5 -49 242.5 q-47 112 -133.5 198 q-86.5 86 -198.5 134 q-116 49 -242 49 ZM1696 586 q-68 0 -125 33.5 q-57 33.5 -91 91 q-34 57.5 -34 125 q0 67.5 34 125 q34 57.5 91 91 q57 33.5 124.5 33.5 q67.5 0 125 -33.5 q57.5 -33.5 91 -91 q33.5 -57.5 33.5 -125 q0 -67.5 -33.5 -125 q-33.5 -57.5 -91 -91 q-57.5 -33.5 -124.5 -33.5 Z" /><glyph glyph-name="check" unicode="&#xea0a;" d="M6425 4575 l-350 350 q-49 49 -112 66.5 q-63 17.5 -126 0 q-63 -17.5 -112 -66.5 l-25 0 l-3350 -3475 q-25 -25 -56 -33.5 q-31 -8.5 -62.5 0 q-31.5 8.5 -56.5 33.5 l-1375 1475 l-25 25 q-49 49 -112 66.5 q-63 17.5 -126 0 q-63 -17.5 -112 -66.5 l-350 -350 q-35 -35 -56 -87 q-19 -47 -19 -88 q0 -41 19 -87 q21 -53 56 -88 l50 -75 l1950 -2100 q39 -39 78 -56 q42 -19 97 -19 q55 0 97 19 q39 17 78 56 l4000 4150 q49 49 66.5 112 q17.5 63 0 126 q-17.5 63 -66.5 112 Z" /><glyph glyph-name="clock" unicode="&#xea0b;" d="M2500 5000 q-407 0 -789 -128 q-370 -123 -687 -355 q-312 -229 -541 -541 q-232 -317 -355 -687 q-128 -382 -128 -789 q0 -407 128 -789 q123 -370 355 -687 q229 -312 541 -541 q317 -232 687 -355 q382 -128 789 -128 q407 0 789 128 q370 123 687 355 q312 229 541 541 q232 317 355 687 q128 382 128 789 q0 407 -128 789 q-123 370 -355 687 q-229 312 -541 541 q-317 232 -687 355 q-382 128 -789 128 ZM2500 532 q-320 0 -621 100 q-292 98 -541 280 q-245 181 -426 426 q-182 249 -280 541 q-100 301 -100 621 q0 320 100 621 q98 292 280 541 q181 245 426 426 q249 182 541 280 q301 100 621 100 q320 0 621 -100 q292 -98 541 -280 q245 -181 426 -426 q182 -249 280 -541 q100 -301 100 -621 q0 -320 -100 -621 q-98 -292 -280 -541 q-181 -245 -426 -426 q-249 -182 -541 -280 q-301 -100 -621 -100 ZM3803 2577 l-1124 0 l0 1351 q0 56 -27.5 103.5 q-27.5 47.5 -75 75 q-47.5 27.5 -103 27.5 q-55.5 0 -103 -27.5 q-47.5 -27.5 -75 -75 q-27.5 -47.5 -27.5 -103.5 l0 -1557 q0 -56 27.5 -103 q27.5 -47 75 -74.5 q47.5 -27.5 103.5 -27.5 l1329 0 q56 0 103 27.5 q47 27.5 75 74.5 q28 47 28 103 q0 56 -28 103.5 q-28 47.5 -75 75 q-47 27.5 -103 27.5 Z" /><glyph glyph-name="close" unicode="&#xea0c;" d="M4660 4340 l-320 320 l-1840 -1840 l-1840 1840 l-320 -320 l1840 -1840 l-1840 -1840 l320 -320 l1840 1840 l1840 -1840 l320 320 l-1840 1840 l1840 1840 Z" /><glyph glyph-name="cog" unicode="&#xea0d;" d="M4983 2777 q-3 34 -29 63 q-23 28 -59 44 q-36 16 -72 16 q-113 0 -215.5 42 q-102.5 42 -180.5 119.5 q-78 77.5 -121 180.5 q-43 106 -40.5 219.5 q2.5 113.5 48.5 216.5 q47 104 132 182 q26 23 37 56.5 q11 33.5 5.5 68.5 q-5.5 35 -27.5 63 q-173 219 -397 400 q-28 22 -63 28 q-35 6 -69 -5.5 q-34 -11.5 -57 -37.5 q-74 -82 -182 -130 q-106 -46 -221 -49 q-119 -4 -221 39 q-106 45 -185 128.5 q-79 83.5 -119 190.5 q-40 108 -34 224 q2 37 -14 69 q-16 32 -44.5 52.5 q-28.5 20.5 -64.5 23.5 q-277 34 -562 2 q-35 -3 -64 -23.5 q-29 -20.5 -45 -52 q-16 -31.5 -15 -67.5 q3 -115 -38 -221.5 q-41 -106.5 -119 -186.5 q-80 -83 -185 -126 q-101 -41 -219 -37 q-114 4 -220 51 q-107 47 -181 128 q-24 26 -57.5 37.5 q-33.5 11.5 -68 6 q-34.5 -5.5 -62.5 -27.5 q-223 -173 -403 -400 q-23 -28 -29 -63 q-6 -35 5.5 -69 q11.5 -34 37.5 -57 q87 -79 134 -183.5 q47 -104.5 49 -219 q2 -114.5 -43 -221.5 q-42 -101 -124 -177.5 q-82 -76.5 -190.5 -118.5 q-108.5 -42 -228.5 -42 q-59 1 -98.5 -33 q-39.5 -34 -46.5 -90 q-33 -279 -2 -569 q3 -34 30 -63 q24 -27 61 -43.5 q37 -16.5 73 -16.5 q108 3 209.5 -38.5 q101.5 -41.5 180.5 -118.5 q81 -80 124.5 -185.5 q43.5 -105.5 41 -219 q-2.5 -113.5 -48.5 -216.5 q-47 -104 -132 -182 q-26 -23 -37 -56.5 q-11 -33.5 -5.5 -68.5 q5.5 -35 27.5 -62 q171 -220 397 -400 q28 -23 63 -29 q35 -6 69 5.5 q34 11.5 57 37.5 q74 82 182 130 q106 46 221 49 q119 4 221 -39 q106 -45 185 -128.5 q79 -83.5 119 -189.5 q40 -109 34 -225 q-2 -37 14 -69 q16 -32 44.5 -53 q28.5 -21 64.5 -25 q142 -17 288 -17 q127 0 275 15 q36 4 65 24 q29 20 45 51.5 q16 31.5 15 67.5 q-5 115 37 223 q41 105 120 186.5 q79 81.5 185 124.5 q102 41 220 37 q114 -4 219 -50 q107 -47 181 -128 q37 -41 90.5 -45 q53.5 -4 97.5 30 q226 178 403 400 q23 28 29 63 q6 35 -5.5 69 q-11.5 34 -38.5 58 q-86 78 -133 182.5 q-47 104.5 -49 219 q-2 114.5 43 221.5 q42 100 120.5 177 q78.5 77 180 119 q101.5 42 210.5 42 l32 0 q36 -3 68 13 q32 16 53 45 q21 29 26 65 q27 309 -4 569 ZM2504 1661 q-170 0 -324 66 q-150 63 -265.5 178.5 q-115.5 115.5 -178.5 264.5 q-66 155 -66 324.5 q0 169.5 66 323.5 q63 150 178.5 265.5 q115.5 115.5 265.5 178.5 q154 66 323.5 66 q169.5 0 324.5 -66 q149 -63 264.5 -178.5 q115.5 -115.5 178.5 -265.5 q66 -154 66 -323.5 q0 -169.5 -66 -324.5 q-63 -149 -178.5 -264.5 q-115.5 -115.5 -264.5 -178.5 q-155 -66 -324 -66 Z" /><glyph glyph-name="contact" unicode="&#xea0e;" d="M5000 3819 q0 139 -54 265 q-52 122 -146 216.5 q-94 94.5 -217 146.5 q-126 53 -265 53 l-3636 0 q-139 0 -265 -53 q-123 -52 -217 -146.5 q-94 -94.5 -146 -216.5 q-54 -126 -54 -265 l0 -2736 q0 -136 52 -261.5 q52 -125.5 148 -221.5 q96 -96 221 -148 q125 -52 261 -52 l3636 0 q136 0 261 52 q125 52 221 148 q96 96 148 221.5 q52 125.5 52 261.5 l0 2736 ZM682 4050 l3636 0 q65 -2 118.5 -37.5 q53.5 -35.5 81.5 -93.5 l-2018 -1416 l-2019 1417 q27 58 81.5 93.5 q54.5 35.5 119.5 36.5 ZM4318 850 l-3636 0 q-63 2 -116 34 q-53 32 -84 86 q-31 54 -32 117 l0 2291 l1918 -1341 q59 -41 131.5 -41 q72.5 0 132.5 41 l1918 1341 l0 -2291 q-1 -63 -32 -117 q-31 -54 -84 -86 q-53 -32 -116 -34 Z" /><glyph glyph-name="customer_support" unicode="&#xea0f;" d="M4577 3028 q-10 323 -119 624 q-106 293 -296 542 q-188 246 -440 426 q-256 183 -553 280 q-308 100 -634 100 q-326 0 -633 -100 q-298 -97 -553 -280 q-252 -180 -440 -426 q-190 -249 -296 -542 q-110 -301 -120 -624 q-136 -14 -250 -90 q-112 -75 -176 -193 q-67 -121 -67 -259 l0 -451 q0 -114 43 -217 q42 -100 118 -177 q76 -77 175 -119 q102 -43 213 -43 l226 0 q7 -39 31 -71 q24 -32 60 -51 q36 -19 78 -19 l141 0 q48 0 88.5 23.5 q40.5 23.5 64 64 q23.5 40.5 23.5 88.5 l0 1479 q0 48 -23.5 88.5 q-23.5 40.5 -64 64 q-40.5 23.5 -88.5 23.5 l-141 0 q-42 0 -78 -19 q-36 -19 -60 -51 q-24 -32 -31 -71 l-141 0 q12 300 115 580 q100 272 276 503 q175 229 409 396 q237 169 513 259 q285 93 588 93 q303 0 589 -93 q275 -90 513 -259 q233 -167 408 -396 q177 -231 276 -503 q103 -280 116 -580 l-141 0 q-7 39 -31.5 71 q-24.5 32 -60.5 51 q-36 19 -77 19 l-141 0 q-49 0 -89 -23.5 q-40 -23.5 -63.5 -64 q-23.5 -40.5 -23.5 -88.5 l0 -1479 q0 -48 23.5 -88.5 q23.5 -40.5 63.5 -64 q40 -23.5 89 -23.5 l141 0 q41 0 77 19 q36 19 60.5 51 q24.5 32 31.5 71 l141 0 q-16 -229 -130 -437 q-110 -202 -299 -360 q-189 -158 -430 -250 q-249 -95 -522 -108 q-27 75 -90 121 q-66 48 -149 48 l-563 0 q-66 0 -123 -33.5 q-57 -33.5 -90.5 -90.5 q-33.5 -57 -33.5 -122.5 q0 -65.5 33.5 -122.5 q33.5 -57 90.5 -90.5 q57 -33.5 123 -33.5 l563 0 q83 0 149 52 q63 50 90 131 q302 13 577 119 q266 103 474.5 280.5 q208.5 177.5 329.5 404.5 q125 235 140 492 q136 14 250 90 q112 75 177 193 q66 121 66 259 l0 451 q0 145 -66 269 q-65 120 -177.5 196.5 q-112.5 76.5 -249.5 90.5 ZM141 2028 l0 451 q0 111 56 206 q54 92 146 147 q95 55 206 55 l226 0 l0 -1267 l-226 0 q-111 0 -206 56 q-92 54 -146 146 q-56 95 -56 206 ZM915 2993 q0 16 10 25.5 q10 9.5 26 9.5 l141 0 q15 0 25 -9.5 q10 -9.5 10 -25.5 l0 -1479 q0 -16 -10 -25.5 q-10 -9.5 -25 -9.5 l-141 0 q-16 0 -26 9.5 q-10 9.5 -10 25.5 l0 1479 ZM2817 141 l-563 0 q-28 0 -52.5 14.5 q-24.5 14.5 -39 39 q-14.5 24.5 -14.5 52 q0 27.5 14.5 52 q14.5 24.5 39 39 q24.5 14.5 52.5 14.5 l563 0 q28 0 52 -14.5 q24 -14.5 39 -39 q15 -24.5 15 -52 q0 -27.5 -15 -52 q-15 -24.5 -39 -39 q-24 -14.5 -52 -14.5 ZM4155 1514 q0 -16 -9.5 -25.5 q-9.5 -9.5 -25.5 -9.5 l-141 0 q-16 0 -25.5 9.5 q-9.5 9.5 -9.5 25.5 l0 1479 q0 16 9.5 25.5 q9.5 9.5 25.5 9.5 l141 0 q16 0 25.5 -9.5 q9.5 -9.5 9.5 -25.5 l0 -1479 ZM4930 2028 q0 -111 -56 -206 q-54 -92 -147 -146 q-95 -56 -206 -56 l-225 0 l0 1267 l225 0 q111 0 206 -55 q93 -55 147 -147 q56 -95 56 -206 l0 -451 Z" /><glyph glyph-name="delete" unicode="&#xea10;" d="M278 556 q0 -113 44 -216 q42 -99 119 -176.5 q77 -77.5 177 -119.5 q103 -44 215 -44 l2223 0 q112 0 215 44 q100 42 177 119.5 q77 77.5 119 176.5 q44 103 44 216 l0 3333 l-3333 0 l0 -3333 ZM2917 4722 l-279 278 l-1387 0 l-279 -278 l-972 0 l0 -555 l3889 0 l0 555 l-972 0 Z" /><glyph glyph-name="earth" unicode="&#xea11;" d="M5000 2667 q-20 364 -147 706 q-123 333 -338 619 q-213 284 -499 499 q-288 217 -627 346 q-348 133 -722 163 l-334 0 q-364 -30 -706 -163 q-333 -129 -619 -346 q-284 -215 -499 -499 q-217 -286 -346 -619 q-133 -342 -163 -706 l0 -334 q20 -364 147 -706 q123 -333 338 -619 q213 -284 499 -499 q288 -217 627 -346 q348 -133 722 -163 l334 0 q364 20 706 147 q333 123 619 338 q284 213 499 499 q217 288 346 627 q133 348 163 722 l0 334 ZM1567 4467 q-250 -350 -400 -800 l-500 0 q350 500 900 800 ZM500 3333 l600 0 q-49 -148 -75 -320 q-25 -169 -25 -346 l-667 0 q23 155 36 232 q23 127 51 224 q33 117 80 210 ZM333 2333 l667 0 q0 -158 21 -345 q15 -138 46 -321 l-567 0 q-47 93 -80 210 q-28 97 -51 224 q-13 77 -36 232 ZM667 1333 l500 0 q150 -450 400 -800 q-550 300 -900 800 ZM2333 367 q-165 49 -318 184 q-151 132 -275 332.5 q-124 200.5 -207 449.5 l800 0 l0 -966 ZM2333 1667 l-900 0 q-49 148 -75 321 q-25 168 -25 345 l1000 0 l0 -666 ZM2333 2667 l-1000 0 q0 177 25 346 q26 172 75 320 l900 0 l0 -666 ZM2333 3667 l-800 0 q83 265 208 473 q123 205 274 332 q153 128 318 161 l0 -966 ZM4333 3667 l-500 0 q-150 450 -400 800 q550 -300 900 -800 ZM2667 4633 q165 -33 318 -161 q151 -127 274 -332 q125 -208 208 -473 l-800 0 l0 966 ZM2667 3333 l900 0 q49 -148 75 -320 q25 -169 25 -346 l-1000 0 l0 666 ZM2667 2333 l1000 0 q0 -177 -25 -345 q-26 -173 -75 -321 l-900 0 l0 666 ZM2667 367 l0 966 l800 0 q-83 -265 -208 -473 q-123 -205 -274 -332 q-153 -128 -318 -161 ZM3433 533 q250 300 400 800 l500 0 q-350 -500 -900 -800 ZM4500 1667 l-600 0 q49 148 75 321 q25 168 25 345 l667 0 q-23 -155 -36 -232 q-23 -127 -51 -224 q-33 -117 -80 -210 ZM4000 2667 q0 158 -21 346 q-15 137 -46 320 l600 0 q47 -93 81 -210 q28 -97 50 -224 q14 -77 36 -232 l-700 0 Z" /><glyph glyph-name="empty_cart" unicode="&#xea12;" d="M4373 2472 q-1 3 -1 5 q-1 6 -5.5 10 q-4.5 4 -12.5 4 l0 5 q-2 5 -6 9 q-4 4 -12 4 l-554 738 q-13 39 -50 58 q-33 16 -79 16 l-2214 0 q-98 0 -147 -74 l-554 -738 l-1 -5 q-1 -5 -5 -9 q-4 -4 -12 -4 l-1 -5 q-1 -5 -5.5 -9.5 q-4.5 -4.5 -12.5 -4.5 l0 -1918 q0 -155 74 -283 q72 -125 197 -197 q128 -74 283 -74 l2583 0 q154 0 283 74 q124 72 196 197 q74 128 74 283 l0 1845 q0 18 -2 30 q-4 19 -16 43 ZM1531 2952 l2030 0 l277 -369 l-2583 0 l276 369 ZM4022 554 q0 -55 -23 -97 q-23 -42 -65 -65 q-42 -23 -96 -23 l-2583 0 q-55 0 -97 23 q-42 23 -65 65 q-23 42 -23 97 l0 1660 l2952 0 l0 -1660 ZM2546 738 q191 0 362 72 q166 69 293 195.5 q127 126.5 196 292.5 q72 172 72 363 q0 54 -23 96 q-23 42 -65 65 q-42 23 -97 23 q-55 0 -96.5 -23 q-41.5 -23 -64.5 -65 q-23 -42 -23 -96 q0 -155 -74 -283 q-72 -125 -197 -197 q-128 -74 -282.5 -74 q-154.5 0 -283.5 74 q-125 72 -197 197 q-73 128 -73 283 q0 54 -23 96 q-23 42 -65 65 q-42 23 -97 23 q-55 0 -96.5 -23 q-41.5 -23 -64.5 -65 q-23 -42 -23 -96 q0 -191 71 -363 q69 -166 196 -292.5 q127 -126.5 293 -195.5 q172 -72 362 -72 ZM2546 3653 q55 0 97 23 q42 23 65 65 q23 42 23 97 l0 977 q0 55 -23 97 q-23 42 -65 65 q-42 23 -97 23 q-55 0 -96.5 -23 q-41.5 -23 -64.5 -65 q-23 -42 -23 -97 l0 -977 q0 -47 23 -89.5 q23 -42.5 64 -68.5 q44 -27 97 -27 ZM3266 3561 q46 -18 94.5 -13 q48.5 5 86.5 32 q41 28 59 73 l424 830 q19 47 18 96 q-1 49 -24 86 q-24 41 -68 58 q-47 19 -95.5 18 q-48.5 -1 -86.5 -23 q-40 -24 -58 -69 l-424 -830 q-27 -45 -26 -94.5 q1 -49.5 27.5 -93 q26.5 -43.5 72.5 -70.5 ZM1587 3653 q18 -45 58 -73 q38 -27 87 -32 q49 -5 94 13 q45 18 73 62 q26 42 27 92 q1 50 -26 86 l-424 848 q-18 45 -58 69 q-37 22 -86 23 q-49 1 -96 -18 q-45 -27 -72 -69.5 q-27 -42.5 -28 -88.5 q-1 -46 26 -82 l425 -830 Z" /><glyph glyph-name="eno_expertise_grey" unicode="&#xea13;" d="M60 2423 q-1 19 7.5 35.5 q8.5 16.5 24.5 26.5 q16 10 34.5 10.5 q18.5 0.5 35 -8.5 q16.5 -9 26 -25 q9.5 -16 9.5 -35 q0 -28 -19.5 -48 q-19.5 -20 -47 -20.5 q-27.5 -0.5 -48 18 q-20.5 18.5 -22.5 46.5 ZM0 2684 l2 24 l247 -23 l9 101 l23 -2 l-12 -125 l-269 25 ZM22 2875 l4 26 l79 -40 l-3 -20 l-80 34 ZM38 2971 l26 121 l22 -5 l-20 -96 l94 -20 l20 91 l23 -5 l-20 -91 l102 -23 l21 101 l23 -5 l-26 -125 l-265 57 ZM224 3189 l-147 -43 l9 28 l125 35 l-83 101 l8 26 l97 -119 l163 46 l-9 -29 l-140 -37 l94 -113 l-8 -27 l-109 132 ZM254 3542 q-23 -20 -34 -47 q-11 -43 8 -82.5 q19 -39.5 60 -57 q41 -17.5 83 -3.5 q42 14 64 52 q13 26 11 56 l22 -8 q1 -30 -12 -58 q-17 -31 -46 -50 q-29 -19 -64 -22.5 q-35 -3.5 -68 10.5 q-33 14 -54.5 41.5 q-21.5 27.5 -28.5 62 q-7 34.5 4 68.5 q11 28 32 49 l23 -11 ZM265 3633 l58 109 l21 -11 l-47 -87 l85 -46 l44 83 l21 -12 l-44 -82 l91 -49 l49 90 l21 -11 l-61 -112 l-238 128 ZM362 3806 l14 21 l207 -134 l55 85 l20 -12 l-68 -106 l-228 146 ZM459 3952 l15 20 l198 -148 l60 81 l19 -14 l-75 -101 l-217 162 ZM568 4094 l81 93 l18 -15 l-65 -75 l73 -63 l61 71 l18 -16 l-61 -70 l78 -68 l68 77 l17 -15 l-84 -96 l-204 177 ZM699 4242 l23 21 l257 -84 l1 1 l-165 172 l18 17 l187 -196 l-24 -23 l-253 82 l0 0 l161 -169 l-18 -17 l-187 196 ZM1049 4504 q-29 -7 -51 -25 q-18 -14 -28.5 -34 q-10.5 -20 -11.5 -42 q-1 -22 7 -43 q8 -21 23 -36 q11 -20 29.5 -33 q18.5 -13 40 -17 q21.5 -4 43.5 1 q22 5 39 19 q25 17 38 44 l15 -18 q-14 -27 -38 -44 q-21 -18 -47.5 -24.5 q-26.5 -6.5 -53.5 -2 q-27 4.5 -49 20 q-22 15.5 -36 39.5 q-19 19 -28 44.5 q-9 25.5 -7 52.5 q2 27 15 51 q13 24 34 40 q24 19 52 28 l14 -21 ZM1102 4576 l104 66 l13 -19 l-83 -53 l52 -82 l78 50 l13 -19 l-79 -51 l56 -88 l87 56 l12 -20 l-107 -69 l-146 229 ZM1369 4734 l57 26 q23 13 50 15 q27 2 52 -8.5 q25 -10.5 43 -30.5 q18 -20 25 -46 q15 -26 17 -54.5 q2 -28.5 -9 -55.5 q-11 -27 -32.5 -46.5 q-21.5 -19.5 -49.5 -27.5 l-40 -19 l-113 247 ZM1495 4519 l19 9 q23 6 41 22.5 q18 16.5 27 39 q9 22.5 6.5 46.5 q-2.5 24 -14.5 45 q-6 21 -20.5 37.5 q-14.5 16.5 -35 25 q-20.5 8.5 -42.5 7 q-22 -1.5 -41 -12.5 l-33 -15 l93 -204 ZM1610 4838 l117 41 l7 -22 l-92 -33 l32 -91 l88 31 l7 -22 l-88 -31 l35 -98 l97 34 l7 -22 l-120 -42 l-90 255 ZM1852 4671 q28 -10 57 -1 q24 3 36.5 24 q12.5 21 4.5 44 q-4 16 -23 26 q-11 6 -41 14 q-35 10 -49 18 q-25 14 -32 39 q-7 31 10.5 57 q17.5 26 49.5 31 q24 7 49 4 l3 -24 q-24 5 -47 -2 q-22 -3 -34 -20.5 q-12 -17.5 -7 -38.5 q4 -16 22 -26 q11 -5 40 -13 q35 -9 51 -18 q25 -15 33 -43 q4 -16 1.5 -32 q-2.5 -16 -11 -29.5 q-8.5 -13.5 -22 -22.5 q-13.5 -9 -29.5 -11 q-28 -8 -58 -4 l-4 28 ZM2124 4733 q27 -14 57 -9 q24 1 38.5 20 q14.5 19 9.5 43 q-2 16 -19 28 q-11 8 -39 20 q-33 14 -47 24 q-23 17 -26 42 q-4 31 17 55 q21 24 52 26 q26 3 50 -3 l0 -24 q-23 7 -46 3.5 q-23 -3.5 -36 -14.5 q-16 -15 -12 -39 q2 -16 18 -27 q11 -7 38 -18 q34 -14 48 -25 q24 -18 28 -47 q2 -16 -2.5 -31.5 q-4.5 -15.5 -14.5 -28 q-10 -12.5 -24.5 -19.5 q-14.5 -7 -30.5 -7 q-30 -5 -58 3 l-1 28 ZM2374 4995 l28 1 l111 -266 l-26 -1 l-30 71 l-127 -5 l-23 -73 l-25 -1 l92 274 ZM2387 4970 l-48 -151 l109 4 l-61 147 ZM2634 4723 l-26 1 l-79 276 l27 -2 l67 -248 l98 239 l24 -2 l-111 -264 ZM2899 4970 q53 -9 76 -56 q20 -42 10 -100 q-10 -63 -44 -95 q-35 -34 -87 -25.5 q-52 8.5 -75 51.5 q-22 41 -12 105 q9 58 42 91 q37 38 90 29 ZM2792 4845 q-8 -46 7 -82 q18 -40 58.5 -46.5 q40.5 -6.5 70.5 25.5 q25 29 32.5 76 q7.5 47 -7.5 82 q-17 40 -58 47 q-41 7 -70 -26 q-26 -29 -33 -76 ZM3006 4668 l64 263 l24 -6 l-64 -263 l-24 6 ZM3165 4908 l62 -20 q15 -2 27.5 -10.5 q12.5 -8.5 19.5 -21.5 q7 -13 8 -28 q1 -15 -5 -29 q-7 -23 -27.5 -35.5 q-20.5 -12.5 -44.5 -7.5 l0 0 q12 -6 17 -16 q3 -6 4 -23 l11 -115 l-26 8 l-8 98 q-3 27 -11 36 q-6 8 -26 13 l-19 7 l-38 -123 l-24 8 l80 259 ZM3154 4786 l25 -8 q24 -8 43 -2 q24 6 31 31 q9 28 -6 44 q-10 10 -41 19 l-24 8 l-28 -92 ZM3299 4703 l84 -33 l-9 -25 l-84 33 l9 25 ZM3491 4791 l109 -50 l-10 -21 l-86 40 l-40 -88 l82 -38 l-10 -21 l-82 38 l-54 -116 l-22 11 l113 245 ZM3723 4675 l25 -14 l-48 -285 l-23 13 l13 77 l-111 63 l-59 -50 l-21 12 l224 184 ZM3721 4646 l-122 -102 l95 -54 l27 156 ZM3872 4583 l21 -14 l-151 -225 l-20 14 l150 225 ZM3973 4514 l51 -40 q13 -7 21.5 -19.5 q8.5 -12.5 11 -27 q2.5 -14.5 -2 -29 q-4.5 -14.5 -15.5 -25.5 q-14 -19 -38 -23 q-24 -4 -44 9 l0 -1 q9 -10 10 -21 q0 -6 -4 -23 l-31 -111 l-22 17 l27 95 q8 25 3 37 q-3 9 -19 21 l-16 13 l-79 -101 l-19 15 l166 214 ZM3919 4404 l21 -16 q20 -16 40 -18 q24 -2 40 19 q18 23 10 43 q-6 13 -31 33 l-20 15 l-60 -76 ZM4142 4377 l91 -83 l-16 -17 l-72 66 l-66 -71 l69 -63 l-16 -17 l-69 63 l-70 -77 l75 -69 l-15 -17 l-94 86 l183 199 ZM4358 4163 l78 -92 l-18 -15 l-62 73 l-73 -63 l59 -69 l-18 -15 l-59 69 l-96 -83 l-16 19 l205 176 ZM4474 4024 l38 -52 q10 -11 15 -25 q5 -14 3 -29 q-2 -15 -10.5 -27.5 q-8.5 -12.5 -21.5 -19.5 q-19 -15 -43 -12.5 q-24 2.5 -40 20.5 l-1 0 q7 -12 4 -23 q-1 -6 -10 -21 l-60 -98 l-16 22 l52 83 q14 23 13 36 q-1 9 -13 25 l-12 17 l-103 -75 l-14 20 l219 159 ZM4391 3934 l16 -22 q15 -20 33 -28 q23 -8 44 7 q24 17 21 39 q-2 14 -21 40 l-15 20 l-78 -56 ZM4640 3778 l14 -24 l-182 -223 l-13 22 l48 60 l-64 109 l-76 -13 l-13 21 l286 48 ZM4624 3754 l-156 -28 l55 -94 l101 122 ZM4730 3617 l13 -29 l-163 -215 l0 -1 l216 99 l11 -23 l-247 -112 l-13 31 l160 211 l0 1 l-212 -97 l-11 23 l246 112 ZM4862 3201 q3 29 -7 57 q-19 40 -60 57 q-41 17 -83 3 q-42 -14 -64.5 -52 q-22.5 -38 -13.5 -82 q8 -28 28 -49 l-21 -9 q-21 22 -29 51 l-2 5 l-17 0 q3 -5 5 -11 q4 -10 -0.5 -20 q-4.5 -10 -15.5 -13 q-25 -9 -38 29 q-5 18 -3 37 l14 2 q-5 -17 0 -34 q2 -8 7 -11.5 q5 -3.5 11.5 -2 q6.5 1.5 9 7 q2.5 5.5 0.5 12 q-2 6.5 -6 12.5 l31 1 q-6 25 -1.5 49.5 q4.5 24.5 18 46 q13.5 21.5 34.5 35.5 q21 14 45 19 q25 12 52 12 q27 0 52 -11 q25 -11 43 -31 q18 -20 26 -46 q10 -28 9 -57 l-24 -7 ZM4931 3047 l6 -27 l-243 -156 l-5 26 l65 42 l-27 123 l-77 11 l-5 24 l286 -43 ZM4909 3030 l-157 21 l23 -106 l134 85 ZM4696 2835 l268 39 l3 -25 l-267 -38 l-4 24 ZM4741 2764 q-15 -27 -11 -57 q0 -24 18.5 -39.5 q18.5 -15.5 41.5 -11.5 q17 1 30 18 q8 10 21 38 q15 32 26 46 q18 22 43 24 q32 1 55 -20.5 q23 -21.5 23 -53.5 q2 -25 -5 -50 l-25 2 q9 23 7 46 q-2 23 -14 37 q-14 16 -38 14 q-16 -1 -28 -18 q-8 -10 -20 -36 q-15 -33 -27 -47 q-19 -23 -48 -26 q-16 -1 -31 4 q-15 5 -27 16 q-12 11 -18.5 25.5 q-6.5 14.5 -6.5 30.5 q-3 30 7 58 l27 0 ZM4924 2420 q2 -21 -8.5 -39 q-10.5 -18 -29 -27.5 q-18.5 -9.5 -39 -6.5 q-20.5 3 -36.5 16.5 q-16 13.5 -21.5 33.5 q-5.5 20 1.5 39.5 q7 19.5 23.5 32.5 q16.5 13 36.5 14 q29 2 50 -16.5 q21 -18.5 23 -46.5 ZM297 2128 l27 -134 l-23 -5 l-21 107 l-95 -18 l20 -102 l-23 -4 l-20 101 l-102 -20 l22 -111 l-23 -5 l-27 139 l265 52 ZM336 1940 l10 -33 l-186 -206 l0 -1 l228 71 l8 -27 l-259 -80 l-10 36 l182 202 l0 1 l-223 -69 l-8 26 l258 80 ZM418 1630 l-32 76 l21 9 l76 -176 l-22 -10 l-32 76 l-227 -97 l-11 25 l227 97 ZM499 1507 l35 -63 q18 -34 13.5 -61.5 q-4.5 -27.5 -36.5 -44.5 q-23 -11 -47 -4 q-24 7 -37 29 l-1 0 q5 -14 2 -25 q-2 -7 -12 -21 l-71 -93 l-15 26 l62 79 q16 22 16 36 q0 10 -10 29 l-11 20 l-113 -61 l-13 24 l238 130 ZM407 1425 l14 -25 q14 -25 32 -36 q22 -14 45 -2 q26 15 25 38 q-1 16 -17 47 l-14 25 l-85 -47 ZM606 1316 l76 -113 l-19 -13 l-61 90 l-80 -53 l58 -86 l-20 -13 l-57 86 l-87 -58 l63 -95 l-19 -13 l-79 118 l225 150 ZM718 1154 l44 -53 q12 -11 18.5 -26.5 q6.5 -15.5 5.5 -32.5 q-1 -17 -8.5 -31.5 q-7.5 -14.5 -21 -25 q-13.5 -10.5 -30 -14.5 q-16.5 -4 -33 -1 q-16.5 3 -30.5 12.5 q-14 9.5 -22 24.5 l-25 29 l-91 -73 l-17 21 l210 170 ZM635 1051 l12 -15 q24 -30 41 -38 q25 -12 51 9 q19 13 21.5 36.5 q2.5 23.5 -14.5 39.5 l-28 35 l-83 -67 ZM845 1002 l51 -52 q27 -28 29.5 -55 q2.5 -27 -23.5 -52 q-19 -18 -44 -17.5 q-25 0.5 -44 17.5 l0 0 q9 -12 8 -23 q0 -8 -6 -24 l-42 -109 l-22 22 l38 93 q10 25 6 38 q-3 10 -18 26 l-16 16 l-92 -89 l-19 20 l194 189 ZM779 898 l21 -21 q19 -20 40 -26 q25 -7 43 11 q22 21 15 43 q-5 15 -30 40 l-20 21 l-69 -68 ZM1000 848 l20 -18 l-180 -202 l-20 19 l180 201 ZM919 605 q11 -30 38 -50 q18 -18 43 -16.5 q25 1.5 41 21.5 q10 13 5 35 q-3 13 -16 43 q-16 36 -19 54 q-6 30 10 50 q23 24 56 24.5 q33 0.5 57 -23.5 q22 -18 37 -41 l-18 -17 q-13 24 -33.5 39.5 q-20.5 15.5 -39.5 17.5 q-22 2 -37 -17 q-10 -13 -6 -34 q3 -12 16 -41 q17 -36 20 -55 q6 -31 -12 -54 q-11 -13 -26.5 -20 q-15.5 -7 -32.5 -7.5 q-17 -0.5 -33 5.5 q-16 6 -28 19 q-26 19 -42 48 l20 19 ZM1227 667 l115 -74 l-13 -20 l-91 60 l-53 -81 l87 -56 l-13 -20 l-86 56 l-57 -87 l95 -62 l-12 -20 l-119 78 l147 226 ZM1497 506 l63 -28 q28 -8 49 -27 q21 -19 31.5 -45.5 q10.5 -26.5 8.5 -54.5 q-2 -28 -17 -53 q-28 -64 -83 -77 q-50 -12 -118 18 l-44 20 l110 247 ZM1422 269 l20 -9 q120 -54 166 51 q12 20 13.5 43 q1.5 23 -7 44.5 q-8.5 21.5 -25.5 37 q-17 15.5 -39 21.5 l-37 17 l-91 -205 ZM1877 175 q-13 -38 -49.5 -56.5 q-36.5 -18.5 -75.5 -6.5 q-39 12 -58.5 48 q-19.5 36 -9.5 75 l52 168 l27 -8 l-52 -168 q-7 -19 -3 -39 q4 -20 18 -34.5 q14 -14.5 33 -20.5 q19 -6 38.5 -1.5 q19.5 4.5 34 18.5 q14.5 14 19.5 33 l52 168 l27 -8 l-53 -168 ZM2110 305 l68 -9 q39 -6 59 -28.5 q20 -22.5 15 -59.5 q-3 -17 -12 -31 q-9 -14 -23 -23 q-14 -9 -31 -11.5 q-17 -2.5 -33 1.5 l-38 6 l-17 -116 l-27 4 l39 267 ZM2118 173 l19 -3 q38 -5 57 1 q26 8 31 41 q5 23 -9.5 41.5 q-14.5 18.5 -37.5 18.5 l-44 7 l-16 -106 ZM2387 276 l31 -1 l100 -275 l-29 1 l-27 74 l-140 6 l-33 -72 l-26 2 l124 265 ZM2400 250 l-66 -146 l120 -5 l-54 151 ZM2619 254 l-82 -5 l-2 23 l192 12 l1 -23 l-82 -5 l15 -247 l-27 -2 l-15 247 ZM2762 289 l71 11 q38 6 62 -7.5 q24 -13.5 30 -49.5 q3 -25 -12 -45.5 q-15 -20.5 -40 -25.5 l0 -1 q15 1 24 -6 q6 -5 15 -19 l65 -98 l-30 -4 l-54 84 q-15 22 -28 27 q-9 4 -31 0 l-23 -3 l20 -126 l-27 -4 l-42 267 ZM2808 175 l29 4 q28 4 44 18 q20 16 17 42 q-5 29 -27 36 q-15 5 -50 -1 l-28 -4 l15 -95 ZM2977 327 l27 6 l60 -264 l-27 -6 l-60 264 ZM3075 346 l40 14 l174 -192 l20 258 l37 13 l88 -256 l-26 -9 l-79 231 l-1 0 l-17 -264 l-23 -8 l-177 197 l-1 0 l79 -231 l-26 -8 l-88 255 ZM3497 517 q23 12 50 13 q27 1 51.5 -9 q24.5 -10 43 -29 q18.5 -19 27.5 -44 q20 -30 21.5 -66 q1.5 -36 -17 -67 q-18.5 -31 -50.5 -47.5 q-32 -16.5 -68 -13 q-36 3.5 -64.5 26 q-28.5 22.5 -40.5 56.5 q-15 22 -19.5 48.5 q-4.5 26.5 2 52 q6.5 25.5 23.5 46.5 q17 21 41 33 ZM3475 350 q24 -30 61.5 -36 q37.5 -6 69.5 16 q32 22 40 59.5 q8 37.5 -11.5 70.5 q-19.5 33 -56.5 43.5 q-37 10.5 -71 -6.5 q-18 -11 -30.5 -28.5 q-12.5 -17.5 -17.5 -38.5 q-5 -21 -0.5 -42 q4.5 -21 16.5 -38 ZM3651 598 l23 15 l143 -230 l-24 -15 l-142 230 ZM3731 647 l28 21 l255 -108 l1 1 l-141 192 l22 16 l161 -218 l-30 -22 l-251 105 l-1 0 l139 -188 l-22 -17 l-161 218 ZM3943 810 l101 92 l16 -17 l-81 -73 l65 -72 l77 70 l15 -18 l-76 -69 l70 -77 l84 76 l16 -17 l-105 -95 l-182 200 ZM4443 941 l-19 -23 l-275 89 l18 23 l246 -83 l-131 225 l17 21 l144 -252 ZM4315 1222 l16 23 l222 -155 l-15 -22 l-223 154 ZM4653 1247 l-15 -25 l-286 48 l15 25 l255 -46 l-163 203 l14 24 l180 -229 ZM4521 1582 l13 28 l291 -9 l-11 -27 l-79 3 l-57 -129 l54 -57 l-11 -24 l-200 215 ZM4550 1584 l111 -117 l50 111 l-161 6 ZM4588 1741 l11 33 l269 65 l0 1 l-227 70 l8 27 l258 -80 l-11 -35 l-264 -65 l0 0 l223 -69 l-9 -27 l-258 80 ZM4695 2043 l-16 -81 l-23 4 l38 189 l23 -5 l-16 -80 l242 -49 l-5 -27 l-243 49 ZM4361 2499 q0 305 -95 591 q-92 276 -265 513 q-171 233 -405 404 q-236 173 -513 265 q-286 96 -590.5 96 q-304.5 0 -590.5 -96 q-276 -92 -513 -265 q-233 -171 -404 -404 q-173 -237 -265 -513 q-96 -286 -96 -590.5 q0 -304.5 96 -590.5 q92 -277 265 -513 q171 -234 404 -405 q236 -173 513 -265 q286 -95 591 -95 q246 0 483.5 63.5 q237.5 63.5 450.5 186 q213 122.5 387 297 q174 174.5 297 387.5 q123 213 186.5 450 q63.5 237 63.5 484 ZM2857 1800 l121 0 l-647 -1163 l-54 2 l-178 1151 q0 5 1 7.5 q1 2.5 5 2.5 l113 0 q8 -1 14 4 q6 5 8 13 l207 1089 q3 10 -3.5 18.5 q-6.5 8.5 -17.5 8.5 l0 0 q-101 -1 -514 0 l-7 0 q-10 -2 -17 6 q-7 8 -4 17 l186 1105 q1 7 9 7 l554 0 q3 1 5 -2 q2 -3 1 -5 l-20 -70 l-422 0 l-72 -417 q-1 -9 2 -16 q6 -10 23 -11 l362 0 q2 0 2 -1 l0 -1 q0 1 -14 -71 l0 0 q-1 -1 -2 -1 l-371 0 q-21 -2 -24 -18 l-72 -426 l434 0 q8 0 8 -6 l-15 -63 q-2 -10 4 -18 q6 -8 16 -9 l110 -1 q153 8 257 -34 q92 -37 140 -110 q42 -65 43 -149 q1 -87 -41 -163 q-41 -73 -112 -118 q-74 -47 -161 -51 q-60 -1 -116 21 q-2 10 -3 21 q71 -8 133 11 q58 18 103 57 q43 36 68.5 85.5 q25.5 49.5 30 102 q4.5 52.5 -13.5 98.5 q-19 49 -60 83 q-44 36 -110 50 q-73 16 -166 3 l-1 1 l-202 -1044 l-117 0 q-14 0 -19 -8 q-2 -4 -1 -11 l135 -862 l241 441 q241 442 241 444 ZM2452 2933 l0 0 l0 0 Z" /><glyph glyph-name="eno_french_grey" unicode="&#xea14;" d="M0 4871 l4102 0 l0 -4102 l-4102 0 l0 4102 ZM3902 3544 q-14 3 -28 -1 l-20 -4 l10 -48 l21 5 q11 2 21 8 q6 3 8.5 9.5 q2.5 6.5 0.5 13.5 q-1 12 -12 17 l-1 0 ZM3874 3559 q18 5 36 3 q11 -2 18.5 -10 q7.5 -8 8.5 -19 q3 -7 1 -15 q-2 -8 -8 -13 q-7 -7 -17 -11 q14 2 25 -8 q9 -7 11 -18 l5 -19 q0 -4 2 -7 l1 -1 l-21 -5 l-3 7 l-2 10 q-5 23 -18.5 26.5 q-13.5 3.5 -26.5 -0.5 l-18 -4 l11 -51 l-23 -5 l-28 130 l46 10 ZM3802 3551 q-23 -36 -14 -78.5 q9 -42.5 45 -66.5 q17 -12 37.5 -15.5 q20.5 -3.5 41 0.5 q20.5 4 37.5 16 q17 12 29 30 q23 36 14 78.5 q-9 42.5 -45 66.5 q-18 11 -38.5 15 q-20.5 4 -40.5 -0.5 q-20 -4.5 -37 -16 q-17 -11.5 -29 -29.5 ZM3992 3428 q-24 -37 -65.5 -50.5 q-41.5 -13.5 -82 3 q-40.5 16.5 -62 54.5 q-21.5 38 -13.5 81 q8 43 41.5 71.5 q33.5 28.5 77 29 q43.5 0.5 78 -27 q34.5 -27.5 43.5 -69.5 q5 -24 0.5 -48 q-4.5 -24 -17.5 -44 ZM876 3606 q-40 27 -89 26 q-18 -3 -33.5 -13 q-15.5 -10 -24.5 -26 q-9 -16 -10.5 -34.5 q-1.5 -18.5 5.5 -36.5 q23 -42 67 -64 q39 -26 85 -24 q19 1 34.5 11.5 q15.5 10.5 24.5 26.5 q9 16 10.5 34.5 q1.5 18.5 -5.5 35.5 q-22 42 -64 64 ZM908 3664 q24 -13 40.5 -35.5 q16.5 -22.5 21.5 -49.5 q5 -30 -1 -59 q-6 -29 -22 -55 q-14 -26 -36.5 -45.5 q-22.5 -19.5 -50.5 -29.5 q-26 -8 -53.5 -5 q-27.5 3 -51 16.5 q-23.5 13.5 -39.5 36 q-16 22.5 -22 49.5 q-8 60 22.5 113 q30.5 53 87.5 75 q26 9 53.5 6 q27.5 -3 51.5 -17 l-1 0 ZM1033 3957 l-15 -13 l68 -79 l11 9 q22 16 28 42 q2 24 -15 41 q-33 38 -77 0 ZM1102 3700 l-5 6 q25 25 5 47 l-112 130 q-8 11 -22 14 q-15 -2 -28 -11 l-4 6 l100 87 q31 29 72 39 q14 4 28.5 -0.5 q14.5 -4.5 23.5 -16.5 q15 -16 14 -38 q-2 -24 -17 -44 l1 -1 q12 5 25 3 q30 -6 58 -16 q25 -10 53 -14 q15 -1 27 8 l5 -5 l-61 -53 q-36 6 -71 20 q-22 9 -45 14 q-12 3 -23 0 q-17 -8 -30 -21 l51 -58 q9 -12 23 -14 q16 1 28 10 l5 -5 l-101 -87 ZM1448 4239 l3 -7 q-13 -8 -20 -22 q-3 -16 6 -30 l69 -147 q5 -12 17 -19 q15 -3 30 2 l3 -7 l-119 -56 l-3 7 q10 7 17 16 q5 6 5 13 q-1 12 -7 23 l-70 146 q-5 13 -17 19 q-15 3 -30 -2 l-3 7 l119 57 ZM1901 4357 l12 -70 l-8 -2 q-17 27 -46 39.5 q-29 12.5 -59 6.5 q-20 -2 -35.5 -14 q-15.5 -12 -23.5 -30 q-19 -46 -7 -95 q5 -46 37 -78 q15 -13 33.5 -17.5 q18.5 -4.5 37.5 0.5 q41 7 36 34 l-6 37 q-2 12 -11.5 19.5 q-9.5 7.5 -22.5 5.5 l-1 8 l116 20 l1 -7 q-12 -5 -19 -16 q-5 -13 -1 -27 l9 -53 q-48 -29 -103 -36 q-41 -8 -81 2 q-36 10 -60.5 37.5 q-24.5 27.5 -30.5 63.5 q-6 27 1 54 q7 27 25 49.5 q18 22.5 44 37 q26 14.5 55 19 q29 4.5 58 -0.5 q12 -2 23.5 0 q11.5 2 18.5 11 l8 2 ZM2261 4346 l-1 -7 q-15 -1 -29 -9 q-10 -12 -10 -28 l-15 -162 q-3 -13 4 -25 q12 -10 27 -14 l-1 -7 l-131 13 l1 7 q12 1 23 5 q7 3 11 9 q5 11 5 23 l16 162 q2 13 -5 24 q-12 11 -27 14 l0 8 l132 -13 ZM2650 4229 l3 7 l88 -34 l-3 -7 q-16 8 -32 0.5 q-16 -7.5 -21 -24.5 l-74 -194 l-9 4 l-113 264 l-56 -145 q-8 -14 -3 -30 q10 -15 27 -22 l-3 -8 l-90 35 l3 7 q16 -5 31 1 q13 9 18 25 l62 160 q-6 14 -14 26 q-5 7 -12 11 l3 7 l78 -30 l91 -217 l41 106 q8 17 6 35 q-7 16 -21 23 ZM2999 3917 l8 -5 l-49 -62 l-7 5 q9 13 5.5 27.5 q-3.5 14.5 -15.5 22.5 l-39 30 l-46 -59 q-10 -10 -8 -24 q5 -15 19 -24 l13 -10 q17 -12 37.5 -12 q20.5 0 37.5 13 l6 -5 l-42 -45 l-167 131 l4 5 q14 -8 30 -8 q15 5 23 19 l101 129 q9 9 9 23 q-4 15 -15 26 l4 6 l165 -129 l-34 -44 l-7 5 q9 17 7 37 q-5 17 -21 27 l-42 33 l-65 -83 l39 -30 q10 -9 24.5 -8.5 q14.5 0.5 25.5 9.5 l-1 0 ZM1227 1833 l-51 -51 l-6 6 q12 29 5.5 60 q-6.5 31 -28.5 53 q-13 14 -31.5 20 q-18.5 6 -37.5 3 q-49 -12 -82 -49 q-35 -30 -43 -76 q-2 -19 5 -37 q7 -18 21 -30 q30 -30 49 -11 l27 27 q9 8 9.5 20.5 q0.5 12.5 -8.5 21.5 l6 5 l83 -83 l-5 -5 q-11 8 -24 7 q-14 -4 -23 -15 l-38 -38 q-51 23 -89 64 q-30 28 -44 67 q-12 35 -4 72 q10 46 47.5 74 q37.5 28 84.5 25 q30 -2 57 -14.5 q27 -12.5 47.5 -34 q20.5 -21.5 32.5 -47.5 q5 -11 13 -19.5 q8 -8.5 20 -8.5 l7 -6 ZM1330 1584 l73 -38 l10 111 l-83 -73 ZM1353 1455 l4 7 q12 -5 25 -5 q8 0 12 7 q3 10 4 20 l4 42 l-89 46 l-27 -23 q-9 -7 -15 -16 q-8 -16 14 -34 l-3 -7 l-80 42 l3 6 q17 -5 33 1 q22 10 40 26 l162 136 l34 -18 l-19 -219 q-3 -22 3 -44 q5 -16 20 -24 l-4 -7 l-121 64 ZM1791 1553 l-19 4 l-18 -102 l13 -3 q26 -7 51 4 q20 14 22 38 q9 49 -49 60 l0 -1 ZM1635 1339 l1 7 q36 -4 41 25 l30 169 q4 14 -3 26 q-10 11 -25 15 l1 7 l130 -24 q43 -5 76 -30 q12 -9 17.5 -23 q5.5 -14 2.5 -28 q-4 -22 -21 -35 q-21 -14 -45 -15 l0 -1 q11 -6 18 -18 q14 -26 24 -54 q8 -27 22 -51 q9 -12 24 -16 l-2 -7 l-79 14 q-18 33 -28 68 q-7 23 -18 45 q-5 10 -14 17 q-17 8 -35 10 l-13 -76 q-4 -14 3 -26 q10 -12 26 -16 l-2 -7 l-131 24 ZM2163 1396 l83 11 l-55 96 l-28 -107 ZM2257 1304 l-1 7 q12 3 23 10 q7 5 5 14 q-2 9 -7 18 l-21 36 l-99 -12 l-9 -35 q-4 -11 -3 -22 q2 -17 31 -20 l1 -7 l-90 -11 l-1 7 q17 5 27 19 q13 21 18 45 l55 203 l38 5 l110 -191 q10 -19 27 -34 q14 -10 30 -8 l1 -8 l-135 -16 ZM2639 1677 l-3 7 l86 39 l3 -7 q-17 -6 -23 -22.5 q-6 -16.5 3 -31.5 l86 -189 l-8 -4 l-268 103 l65 -140 q5 -16 19 -23 q18 -4 35 3 l3 -7 l-88 -40 l-3 7 q14 8 21 23 q3 16 -5 30 l-72 156 q-14 6 -28 9 q-8 1 -16 -1 l-3 7 l76 34 l219 -86 l-47 103 q-7 18 -22 29 q-15 6 -30 1 ZM3101 1716 l5 -6 l-99 -86 l-4 5 q10 12 13 27 q-1 15 -12 25 l-127 146 l-22 -18 q-16 -14 -23 -34 q-5 -20 4 -38 l-6 -6 l-38 48 l6 6 q14 4 24 14 l136 119 q12 8 17 22 l7 5 l42 -44 l-6 -5 q-17 11 -38 8 q-21 -3 -36 -18 l-21 -18 l128 -147 q8 -11 22 -15 q16 0 28 10 ZM3129 2133 l6 -4 q-7 -14 -7 -29 q2 -10 20 -23 l132 -95 q10 -8 23 -8 q15 5 26 16 l6 -4 l-76 -107 l-6 4 q5 11 7 22 q1 8 -3 15 q-7 10 -17 16 l-132 94 q-10 9 -24 9 q-15 -5 -26 -17 l-6 4 l77 107 ZM3342 2369 l3 8 l73 -31 l-4 -8 q-14 5 -27.5 -2 q-13.5 -7 -17.5 -21 l-19 -45 l69 -29 q12 -7 26 -2 q13 10 17 25 l7 15 q7 19 1.5 39.5 q-5.5 20.5 -22.5 32.5 l3 8 l55 -29 l-82 -196 l-7 3 q4 15 0 30 q-9 13 -25 18 l-150 63 q-12 7 -25 3 q-14 -8 -21 -22 l-7 3 l81 193 l52 -21 l-3 -8 q-19 4 -37 -3 q-15 -10 -21 -27 l-21 -50 l97 -41 l19 46 q6 12 2 26 q-4 14 -17 22 l1 0 ZM512 2429 q0 -1 0 -4 q13 -61 16 -72.5 q3 -11.5 6 -15 q3 -3.5 7 -4.5 l7 3 q1 1 3.5 -3 q2.5 -4 3 -7 q0.5 -3 -0.5 -4.5 q-1 -1.5 -5 -4.5 l-8 -4 l-115 -67 q-5 -4 -11.5 -5.5 q-6.5 -1.5 -9.5 2 q-3 3.5 -6 16.5 l-113 532 l-51 -11 q-13 -2 -15 7 q-1 5 1 7 q2 2 11 7 l84 48 q32 20 70 27 l273 58 q9 2 10 -4.5 q1 -6.5 -11 -14.5 l-87 -52 q-28 -18 -62 -23 l-81 -18 l43 -204 l242 51 q8 2 10 -4 q1 -4 -1.5 -7 q-2.5 -3 -10.5 -7 l-86 -54 q-29 -17 -63 -24 l-78 -17 l28 -127 ZM1046 2543 q5 -48 22 -92 q3 -3 7 -5 l7 2 q1 1 3.5 -2 q2.5 -3 3.5 -6 l0 -1 q1 -3 -1.5 -5 q-2.5 -2 -13.5 -8 l-114 -67 q-7 -4 -11 -5 q-7 -1 -10 2.5 q-3 3.5 -5 16.5 l-114 535 l-54 -12 q-7 -1 -8 6 q-1 4 1 7 q2 3 8 6 l82 48 q67 31 140 44 q75 19 153 15 q41 -3 72 -31 q31 -28 38 -69 q11 -53 -14.5 -96.5 q-25.5 -43.5 -99.5 -96.5 q25 -11 43 -32 l156 -166 q15 -16 20.5 -21 q5.5 -5 9.5 -6 q4 -1 11 0.5 q7 1.5 14 5.5 l6 2 q3 1 5.5 -1.5 q2.5 -2.5 3.5 -6.5 q1 -4 -1 -6 q-2 -2 -8 -6 l-83 -47 q-20 -13 -42 -18 q-16 -3 -27.5 2.5 q-11.5 5.5 -29.5 24.5 l-188 206 q-2 2 -3 5 q-1 5 2 8.5 q3 3.5 21 18.5 q40 26 59 69.5 q19 43.5 10 90.5 q-3 24 -16.5 44.5 q-13.5 20.5 -34 33.5 q-20.5 13 -44.5 16 q-24 3 -47 -4 l-14 -3 l85 -396 ZM1651 2900 q-32 60 -47 97 q2 -57 -6 -113 l-15 -125 l-1 -11 q5 2 12 3 l113 24 q6 2 12 2 q-3 6 -7 11 l-61 112 ZM1566 2593 q-5 -46 -4 -50.5 q1 -4.5 3.5 -6 q2.5 -1.5 9 -1.5 q6.5 0 7.5 -6 q1 -4 0 -5.5 q-1 -1.5 -5 -4.5 l-2 -1 l-77 -41 l-12 -7 q-4 -3 -8.5 -4 q-4.5 -1 -7.5 1 q-3 2 -4 5.5 q-1 3.5 0 9.5 l5 40 l80 557 q-2 7 -5 9 q-3 2 -8.5 1 q-5.5 -1 -7.5 8 q-1 4 0.5 5 q1.5 1 9.5 5 l89 40 q10 6 21 9 q7 2 12 -2 q5 -4 13 -18 l273 -475 l15 -24 q5 -8 8 -9 q3 -1 9 0 q3 1 5 2 q5 3 7.5 3.5 q2.5 0.5 5.5 -1.5 q3 -2 3.5 -5.5 q0.5 -3.5 -0.5 -5 q-1 -1.5 -8 -5.5 l-102 -54 q-17 -9 -21.5 -11.5 q-4.5 -2.5 -9.5 -3.5 q-10 -2 -17 3.5 q-7 5.5 -17 24.5 l-81 152 l-168 -36 l-11 -98 ZM2201 2980 q-51 49 -90 107 q16 -43 25 -88 l62 -291 q5 -25 9.5 -34.5 q4.5 -9.5 10.5 -8.5 l1 0 q1 2 3.5 2.5 q2.5 0.5 4.5 -2 q2 -2.5 3 -6 q1 -3.5 -0.5 -5.5 q-1.5 -2 -8.5 -5 l-62 -34 q-10 -6 -13 -7 q-6 -1 -9 4 q-3 5 -6 22 l-112 526 l-4 5 q-4 5 -10.5 6.5 q-6.5 1.5 -13.5 -0.5 q-9 -2 -17 -6.5 q-8 -4.5 -10 -4.5 q-7 -2 -9 8 q-1 6 8 10 l142 74 q5 2 10 3 q8 2 13 -0.5 q5 -2.5 14 -12.5 l317 -321 q29 -29 50 -64 l-80 377 q-6 25 -10.5 34.5 q-4.5 9.5 -9.5 7.5 l-1 0 q-1 -1 -3.5 -1.5 q-2.5 -0.5 -4.5 1.5 q-2 2 -3 5.5 q-1 3.5 0.5 5.5 q1.5 2 7.5 5 l63 34 q10 6 13 7 q5 1 8 -4 q3 -5 7 -22 l58 -274 q23 -102 29 -205 q4 -37 -18 -66 l-43 -63 q-5 -7 -8.5 -10 q-3.5 -3 -7.5 -4 q-9 -2 -19 7 l-286 288 ZM2911 3363 q-45 -53 -58.5 -120.5 q-13.5 -67.5 7.5 -133.5 q8 -56 37 -105 q29 -49 74 -84 q32 -26 71.5 -35.5 q39.5 -9.5 79.5 -2.5 q61 16 114 48 q5 4 12 6 q3 1 6 -2 q3 -3 4 -8 q1 -5 -6 -11 l-9 -4 q-97 -73 -213 -108 q-69 -15 -132 10 q-63 25 -107.5 83 q-44.5 58 -61.5 141 q-16 67 -3.5 135 q12.5 68 51 125 q38.5 57 97 93.5 q58.5 36.5 126.5 47.5 q40 8 77 8 q37 0 60.5 -8 q23.5 -8 26.5 -23 q2 -9 -10 -20 l-81 -68 q-4 -3 -9 -5 q-10 1 -14 10 q0 3 2 6 l1 4 q-1 3 -14 9.5 q-13 6.5 -28 10.5 q-47 11 -94 2 l-6 -1 ZM3258 3423 q-6 -1 -9 0.5 q-3 1.5 -4 7.5 l0 0 q-1 4 0.5 6 q1.5 2 10.5 6 l84 49 q32 20 69 26 l277 59 q9 2 10 -4 q1 -4 -0.5 -6 q-1.5 -2 -9.5 -8 l-90 -54 q-29 -18 -63 -24 l-81 -17 l43 -204 l243 52 q9 2 10 -5 q1 -3 -0.5 -5 q-1.5 -2 -11.5 -8 l-88 -55 q-30 -18 -64 -24 l-76 -16 l45 -213 l259 55 q8 2 11 0.5 q3 -1.5 4 -6 q1 -4.5 -1 -7.5 q-2 -3 -11 -8 l-98 -55 q-28 -17 -61 -23 l-220 -47 q-6 -1 -9 1 q-3 2 -5 9 l-112 529 l-52 -11 ZM3951 2829 l-3644 -775 l20 -43 l3624 770 l0 48 ZM3688 3789 l-3532 -751 l-5 -48 l3562 757 l-25 42 ZM2508 5000 l-281 0 l-103 -387 q137 -5 272 -31 l112 418 ZM1217 1231 l-329 -1231 l280 0 l301 1122 q-130 45 -251 109 l-1 0 ZM1469 1122 l-301 -1122 l281 0 l283 1054 q-134 24 -263 68 ZM2658 4510 l131 490 l-281 0 l-112 -418 q134 -26 262 -72 ZM2396 4582 l112 418 l-112 -418 ZM1469 1122 l-301 -1122 l301 1122 ZM2908 4397 l162 603 l-281 0 l-131 -490 q129 -47 250 -113 ZM1449 0 l281 0 l275 1026 q-138 3 -273 28 l-283 -1054 ZM1449 0 l283 1054 l-283 -1054 ZM2658 4510 l0 0 l131 490 l-131 -490 ZM3070 5000 l-35 -129 l121 0 l-86 129 ZM4618 802 q24 0 32 5 q8 5 8 19 l0 20 q1 21 -14.5 35 q-15.5 14 -36.5 12 q-26 0 -42.5 -19 q-16.5 -19 -16.5 -50 l0 -22 l70 0 ZM4539 826 q3 23 -12 40 q-15 17 -38 16.5 q-23 -0.5 -37 -15 q-14 -14.5 -14 -42.5 l0 -24 l101 0 l0 25 ZM4474 770 q-23 0 -30.5 -6 q-7.5 -6 -7.5 -21 l-7 0 l0 90 q0 40 17 63 q16 20 41 20 q20 0 33 -11.5 q13 -11.5 21 -36.5 l1 0 q4 25 23 42.5 q19 17.5 45 18.5 q26 1 42 -20.5 q16 -21.5 16 -55.5 l0 -110 l-8 0 q0 15 -8 21 q-8 6 -29 6 l-149 0 ZM4671 1069 l0 -7 l-194 -73 q-24 -10 -31 -16 q-10 -8 -10 -24 l-8 0 l0 87 l8 0 q0 -13 7 -18.5 q7 -5.5 21 0.5 l154 58 l-149 55 q-33 12 -33 -18 l-8 0 l0 70 l8 0 q0 -13 11 -23.5 q11 -10.5 35 -19.5 l189 -71 ZM4497 1417 q-30 -3 -48.5 -25.5 q-18.5 -22.5 -16.5 -52.5 q0 -41 30 -64.5 q30 -23.5 78 -23.5 q53 0 86 25 q33 25 33 66 q0 27 -14 50 q-14 23 -39 33 l6 7 q29 -13 46 -40.5 q17 -27.5 16 -59.5 q0 -24 -8.5 -46 q-8.5 -22 -25.5 -38.5 q-17 -16.5 -39.5 -25.5 q-22.5 -9 -45.5 -8 q-26 -1 -50 7.5 q-24 8.5 -43 26 q-19 17.5 -29 41 q-10 23.5 -10 49.5 q3 34 10 67 q1 8 -7 13 l0 6 l71 0 l0 -7 ZM4570 1571 q-18 3 -32 -9 q-14 -12 -13.5 -30.5 q0.5 -18.5 12.5 -29 q12 -10.5 33 -12.5 l0 81 ZM4578 1490 q44 0 66 22 q17 16 17 37 q0 15 -6.5 25.5 q-6.5 10.5 -24.5 26.5 l11 0 q15 -10 23.5 -26 q8.5 -16 7.5 -34 q2 -33 -21 -57 q-23 -24 -55 -23 q-32 -2 -55.5 20 q-23.5 22 -24.5 54 q-1 26 17 45 q18 19 45 19 l0 -109 ZM4640 1677 q12 0 16.5 5 q4.5 5 4.5 20 l7 0 l0 -78 l-7 0 q0 16 -5.5 20.5 q-5.5 4.5 -23.5 4.5 l-81 0 q-15 0 -19.5 -6 q-4.5 -6 -4.5 -25 l-7 0 l-5 52 l0 7 l33 0 q-18 21 -25.5 32 q-7.5 11 -7.5 18 q2 16 12 28 l26 -12 q-10 -16 -13 -35 q0 -7 4.5 -14 q4.5 -7 13.5 -17 l82 0 ZM4519 1822 l0 51 l11 0 l0 -51 l95 0 q16 0 23.5 7 q7.5 7 7.5 19 q0 18 -14 28 l5 5 q11 -8 18 -20 q7 -12 7 -25 q1 -18 -12 -31 q-13 -13 -31 -12 l-99 0 l0 -28 l-7 0 q-18 34 -53 50 l0 7 l49 0 ZM4552 2192 q1 -27 20 -46 q43 -1 66 14.5 q23 15.5 23 39.5 q0 18 -14.5 29.5 q-14.5 11.5 -37.5 11.5 q-26 0 -42 -13 q-16 -13 -16 -35 l1 -1 ZM4429 2268 q6 -50 43 -84.5 q37 -34.5 87 -37.5 q-25 24 -26 59 q0 28 20 47.5 q20 19.5 48 17.5 q30 -1 51 -23 q21 -22 20 -52 q-1 -17 -8.5 -33 q-7.5 -16 -21 -27.5 q-13.5 -11.5 -30 -17 q-16.5 -5.5 -34.5 -3.5 q-42 1 -77 21.5 q-35 20.5 -56.5 55.5 q-21.5 35 -22.5 77 l7 0 ZM4433 2383 q0 -27 36 -40 q30 -11 78 -11 q52 0 82 12 q32 14 32 38.5 q0 24.5 -29 38 q-29 13.5 -85 13.5 q-48 0 -77 -11 q-37 -13 -37 -40 ZM4672 2383 q0 -20 -13.5 -39 q-13.5 -19 -40.5 -31 q-30 -13 -70.5 -13 q-40.5 0 -69.5 13 q-27 11 -41 30 q-14 19 -14 40 q0 21 14 40 q14 19 41 30 q30 13 70.5 13 q40.5 0 70.5 -13 q26 -12 40 -32 q13 -18 13 -38 ZM4635 2590 q17 0 21.5 5 q4.5 5 4.5 20 l7 0 l0 -77 l-7 0 q0 15 -4.5 20 q-4.5 5 -21.5 5 l-164 0 q-8 0 -8 -4 q6 -15 8 -32 l-7 0 q-14 32 -41 56 l0 7 l212 0 ZM4668 2831 l0 -136 l-9 0 q-61 59 -98 82 q-32 20 -60 20 q-26 0 -40.5 -12 q-14.5 -12 -14.5 -32 q-1 -18 12 -31 q13 -13 31 -13 l0 -7 q-26 1 -45 19 q-19 18 -21 44 q0 27 20 45 q20 18 46 16 q33 0 70 -26 q37 -26 91 -86 l0 117 l18 0 ZM4433 2957 q0 -27 36 -40 q30 -12 78 -12 q52 0 82 13 q32 13 32 38 q0 25 -29 38.5 q-29 13.5 -85 13.5 q-48 0 -77 -11 q-37 -13 -37 -40 ZM4672 2957 q0 -21 -13.5 -40 q-13.5 -19 -40.5 -30 q-30 -13 -70.5 -13 q-40.5 0 -69.5 12 q-27 12 -41 31 q-14 19 -14 40 q0 21 14 40 q14 19 41 30 q30 12 70.5 12 q40.5 0 70.5 -13 q26 -11 40 -31 q13 -18 13 -38 ZM4536 3115 q-5 32 5 54 q8 20 26 31 q16 9 34 9 q30 1 51.5 -21 q21.5 -22 19.5 -52 q1 -19 -8.5 -36.5 q-9.5 -17.5 -25.5 -27.5 l-4 6 q11 8 17.5 20 q6.5 12 6.5 26 q1 23 -15 39 q-16 16 -39 15.5 q-23 -0.5 -37 -17.5 q-17 -21 -12 -59 l-127 4 l0 101 l23 0 l0 -90 l85 -2 ZM4421 3270 l0 7 q3 1 5.5 5 q2.5 4 2.5 9 l0 132 l8 0 l234 -83 l0 -30 l-219 93 l0 -105 q0 -11 5.5 -17 q5.5 -6 24.5 -17 l0 -7 l-61 13 Z" /><glyph glyph-name="eno_garantee_grey" unicode="&#xea15;" d="M2598 4695 q-365 0 -709 -114 q-332 -111 -615 -318 q-280 -205 -485 -485 q-208 -284 -318 -616 q-114 -343 -114 -708 q0 -365 114 -709 q110 -332 318 -615 q205 -280 485 -485 q284 -208 615 -318 q344 -115 709 -115 q365 0 708 115 q332 110 616 318 q280 205 485 485 q208 283 318 615 q114 344 114 709 q0 296 -77 582 q-76 283 -222 537 q-148 256 -357.5 465.5 q-209.5 209.5 -465.5 357.5 q-254 146 -537 222 q-286 77 -582 77 ZM2598 947 q-307 0 -587 118 q-270 115 -478.5 323.5 q-208.5 208.5 -323.5 478.5 q-118 280 -118 587 q0 307 119 587 q114 270 322.5 478.5 q208.5 208.5 479.5 323.5 q280 118 586.5 118 q306.5 0 586.5 -119 q270 -114 478.5 -322.5 q208.5 -208.5 323.5 -479.5 q118 -280 118 -586 q0 -300 -114.5 -577 q-114.5 -277 -326.5 -489 q-212 -212 -489 -326.5 q-277 -114.5 -577 -114.5 ZM1061 3032 l-388 181 l39 84 q9 21 24.5 37 q15.5 16 37 23 q21.5 7 44.5 2 q30 -6 58 -20 q22 -10 43 -24 q16 -11 28 -28 q13 -20 15 -45 q0 -29 -13 -55 l-13 -29 l151 -71 l-26 -55 ZM751 3244 l132 -61 l13 27 q7 13 7 28 q0 11 -7.5 20.5 q-7.5 9.5 -18.5 15.5 q-11 6 -24.5 12 q-13.5 6 -27.5 12 q-11 5 -23 5 q-12 0 -21 -6 q-11 -10 -16 -23 l-14 -30 ZM1186 3289 l-352 244 l35 51 l302 -209 l70 100 l50 -35 l-105 -151 ZM1317 3483 l-237 370 l36 36 l373 -232 l-44 -44 l-78 52 l-59 -60 l52 -78 l-43 -44 ZM1318 3697 l-132 87 l-1 -1 l89 -130 l44 44 ZM1359 3980 q-14 19 -18 42 q-4 21 0.5 40.5 q4.5 19.5 16 35.5 q11.5 16 27 27 q15.5 11 34.5 16 q19 5 39 2.5 q20 -2.5 38 -12.5 q20 -13 33 -33 l130 -186 q13 -18 17 -41 l49 -3 l-4 -49 l-47 4 q-10 -35 -40 -56 q-16 -11 -35 -16 q-19 -5 -39 -2.5 q-20 2.5 -37 12.5 q-21 13 -34 33 l-130 186 ZM1540 3829 q9 -16 28 -19 q17 -2 31 8 q6 4 9 9 l-35 3 l4 48 l32 -2 l-130 187 q-10 17 -29 20 q-17 1 -30.5 -8.5 q-13.5 -9.5 -18.5 -25.5 q-3 -19 9 -34 l130 -186 ZM1801 4354 l137 -303 q9 -18 9.5 -38 q0.5 -20 -6.5 -38 q-7 -18 -20.5 -33 q-13.5 -15 -32 -23.5 q-18.5 -8.5 -38 -8.5 q-19.5 0 -38 6.5 q-18.5 6.5 -33 20 q-14.5 13.5 -23.5 31.5 l-137 303 l57 26 l135 -297 q6 -19 23 -27 q15 -5 29.5 1.5 q14.5 6.5 20.5 21.5 q5 18 -4 35 l-135 297 l56 26 ZM2076 4002 l-106 415 l178 46 l15 -56 l-119 -30 l31 -122 l104 26 l14 -56 l-103 -26 l31 -122 l119 30 l15 -59 l-179 -46 ZM2466 4081 l-3 429 l184 1 l1 -58 l-123 -1 l1 -125 l107 1 l0 -58 l-106 -1 l0 -126 l123 1 l0 -61 l-184 -2 ZM2513 4529 l54 86 l65 0 l-79 -85 l-40 -1 ZM2733 4084 l78 422 l58 -11 l37 -238 l1 0 l119 209 l59 -11 l-78 -422 l-61 12 l48 256 l-2 0 l-93 -170 l-31 6 l-26 192 l-1 0 l-48 -256 l-60 11 ZM3082 4016 l254 359 l47 -20 l-75 -433 l-57 24 l19 92 l-78 32 l-52 -78 l-58 24 ZM3281 4096 l31 155 l-1 0 l-87 -132 l57 -23 ZM3387 3880 l215 371 l54 -32 l-216 -370 l-53 31 ZM3501 3815 l260 341 l49 -38 l-222 -292 l97 -74 l-37 -49 l-147 112 ZM3709 3653 l310 296 l43 -45 l-266 -254 l84 -88 l-44 -42 l-127 133 ZM3888 3461 l353 241 l104 -151 l-47 -33 l-69 101 l-104 -71 l60 -88 l-48 -33 l-60 88 l-104 -71 l69 -101 l-50 -34 l-104 152 ZM4285 3672 l101 3 l37 -54 l-115 18 l-23 33 ZM4037 3237 l388 180 l78 -167 l-52 -24 l-52 111 l-114 -53 l45 -97 l-53 -24 l-45 97 l-114 -53 l52 -111 l-56 -26 l-77 167 ZM2600 3007 q-298 0 -596 -1 q-54 3 -94 38.5 q-40 35.5 -48 88.5 q35 269 125 524 q7 23 26 37 q49 18 151 33 q81 11 193 20 q80 6 167 10 l71 3 l78 -3 q87 -4 167 -10 q111 -9 193 -20 q102 -15 150 -33 q20 -14 27 -37 q89 -255 125 -524 q-9 -53 -49 -88.5 q-40 -35.5 -93 -38.5 l-590 1 l-3 0 ZM2019 3681 q7 -25 14 -51 q14 -54 18 -66 q9 -28 9 -39 q0 0 0 0 q2 8 15 8 l1041 0 q11 0 18 8.5 q7 8.5 11 27.5 q7 25 24 113 l0 0 l-7 -61 q-7 -64 -7 -84 q0 -6 0 -1 q0 0 0 0 q8 -50 29 -96 q17 -47 62 -188 q43 -133 43 -136 l0 -3 l-36 105 q-42 121 -72 197 q-42 106 -54 107 l5 0 q3 0 2 0 l-8 0 q-248 1 -1056 0 q-12 0 -21 -6.5 q-9 -6.5 -12 -16.5 q-11 -26 -130 -368 l0 0 l30 100 q36 115 61 188 q35 103 44 109 q2 8 1.5 16 q-0.5 8 -12.5 73 l-12 64 ZM3032 1170 q-39 -1 -77 11 q-38 12 -70 36 q-30 26 -46 61.5 q-16 35.5 -16 74.5 q0 39 16 74.5 q16 35.5 46 61.5 q67 46 148 46 q81 0 148 -46 q29 -26 45.5 -61.5 q16.5 -35.5 16.5 -74.5 q0 -39 -16.5 -74.5 q-16.5 -35.5 -45.5 -61.5 q-32 -24 -70 -36 q-38 -12 -78 -11 l-1 0 ZM3033 1234 q19 -1 36.5 6.5 q17.5 7.5 29.5 21.5 q25 42 25 91 q0 49 -25 91 q-13 13 -30 20.5 q-17 7.5 -36 7.5 q-19 0 -36 -7.5 q-17 -7.5 -30 -20.5 q-25 -42 -25 -91 q0 -49 25 -91 q12 -14 29.5 -21.5 q17.5 -7.5 36.5 -6.5 ZM2778 1214 q-3 7 -4 11 l0 0 q-20 68 -19 139 l0 20 q1 36 8 72 l5 22 q5 22 9 34 l3 9 q3 7 3 9.5 q0 2.5 -3 2.5 q-31 -7 -56 -25 q-36 -33 -49 -80 l-7 -20 q-5 -16 -8.5 -20.5 q-3.5 -4.5 -12.5 1.5 l0 0 l-2 1 q-18 15 -34 32 q-88 80 -202 111 l-7 0 q-4 0 -3 -6 q17 -48 23 -97 q14 -104 -16 -204 l-1 -4 q-8 -21 -19 -41 q-2 -4 -1 -7.5 q1 -3.5 3 -4 q2 -0.5 4 0.5 q49 6 86 37.5 q37 31.5 50 77.5 q3 9 7 25 q4 16 7.5 19.5 q3.5 3.5 12.5 -4.5 q8 -7 33 -33 q70 -72 162 -112 q16 -7 33 -11 l0 0 q3 0 5 1 q5 1 -10 45 l0 -1 ZM2319 1259 l-3 -1 l0 0 q-55 -15 -111 -16 q-48 -2 -90 21 q-18 9 -29 26 q-11 17 -13 37 l228 0 q14 1 25 6 q15 8 17 24 l0 8 q2 35 -10.5 68 q-12.5 33 -38.5 57 q-26 24 -60 36 q-34 12 -70 10 q-57 1 -109 -22 q-48 -21 -75 -65.5 q-27 -44.5 -27 -96.5 q0 -52 29 -95.5 q29 -43.5 78 -63.5 q57 -23 118 -22 q42 1 82 8 q21 5 37 18.5 q16 13.5 25 32.5 q4 11 7 24 q1 9 -10 6 ZM2097 1450 q26 24 61 22 q79 0 79 -82 l-168 0 q3 35 28 60 ZM1062 1098 l259 253 l35 -35 l-101 -209 l1 0 l155 152 l36 -37 l-258 -253 l-34 35 l100 209 l-1 0 l-155 -152 l-37 37 ZM1294 876 l227 281 l40 -32 l-227 -282 l-40 33 ZM1552 1020 q11 17 28 28 q14 10 31 12.5 q17 2.5 33 -1.5 q33 -7 53 -34 q10 -13 14.5 -29 q4.5 -16 1.5 -34 q-3 -20 -15 -36 l-103 -161 q-11 -17 -28 -29 q-14 -9 -31 -11.5 q-17 -2.5 -33 1 q-16 3.5 -29.5 12 q-13.5 8.5 -23 21.5 q-9.5 13 -14.5 29.5 q-5 16.5 -2 33.5 q3 20 15 37 l103 161 ZM1492 831 q-10 -13 -6 -29 q4 -13 16 -20.5 q12 -7.5 26 -5.5 q16 3 23 17 l104 161 q10 13 6 29 q-4 13 -15.5 20.5 q-11.5 7.5 -25.5 6.5 q-16 -4 -24 -18 l-104 -161 ZM1654 632 l149 330 l76 -35 q83 -37 39 -134 q-11 -26 -31 -44.5 q-20 -18.5 -47 -19.5 l-17 -174 l-50 23 l19 160 l-28 13 l-64 -141 l-46 22 ZM1830 896 l-47 -103 l27 -12 q10 -5 22 -5 q8 0 15.5 5 q7.5 5 12.5 13 q7 10 12 21 q5 11 8 23 q3 9 2 19 q-3 17 -27 28 l-25 11 ZM1958 507 l90 299 l-57 18 l14 47 l164 -50 l-14 -47 l-57 18 l-90 -300 l-50 15 ZM2295 542 l6 52 l152 -18 l-6 -51 l-152 17 ZM2633 404 l-23 361 l154 10 l3 -49 l-102 -6 l7 -110 l89 6 l3 -49 l-89 -6 l10 -154 l-52 -3 ZM2896 425 l-73 355 l82 16 q89 19 111 -85 q6 -28 0.5 -54.5 q-5.5 -26.5 -26.5 -43.5 l88 -150 l-54 -11 l-78 141 l-30 -6 l31 -151 l-51 -11 ZM2883 742 l23 -110 l29 6 q11 2 21 8 q7 5 10 13.5 q3 8.5 2 18.5 q-1 12 -3.5 24 q-2.5 12 -6.5 23 q-3 9 -10.5 16 q-7.5 7 -17.5 8.5 q-10 1.5 -20 -1.5 l-27 -6 ZM3165 483 l-49 368 l41 15 l200 -312 l-48 -18 l-42 68 l-66 -25 l13 -78 l-49 -18 ZM3242 646 l-69 114 l-1 0 l21 -132 l49 18 ZM3464 598 l-175 316 l43 25 l174 -153 l1 0 l-105 191 l45 25 l175 -317 l-43 -23 l-174 152 l-1 -1 l105 -190 l-45 -25 ZM3815 944 l13 -17 q10 -13 14.5 -29 q4.5 -16 2.5 -32.5 q-2 -16.5 -10 -31 q-8 -14.5 -20.5 -24 q-12.5 -9.5 -27 -15.5 q-14.5 -6 -31 -5 q-16.5 1 -31.5 8 q-19 10 -31 28 l-121 158 q-10 14 -14.5 30 q-4.5 16 -2.5 32 q2 16 10.5 30.5 q8.5 14.5 22.5 25 q14 10.5 30 15 q16 4.5 32.5 2 q16.5 -2.5 31.5 -11.5 q15 -9 25 -23 l13 -17 l-41 -31 l-11 14 q-8 12 -22.5 15.5 q-14.5 3.5 -25.5 -5.5 q-6 -4 -10 -10.5 q-4 -6.5 -3 -14.5 q3 -16 13 -28 l113 -147 q8 -11 22 -16 q14 -5 25 6 q5 3 8.5 8 q3.5 5 4.5 11.5 q1 6.5 -1 12.5 q-2 9 -8 16 l-11 15 l41 31 ZM3963 934 l-256 256 l109 109 l35 -34 l-73 -73 l75 -75 l63 63 l35 -34 l-63 -63 l75 -76 l73 73 l36 -37 l-109 -109 ZM0 2868 l5196 0 l0 -1188 l-5196 0 l0 1188 ZM447 2470 l0 42 q0 45 -18.5 70 q-18.5 25 -49.5 25 q-37 0 -55.5 -35 q-18.5 -35 -18.5 -102 l0 -421 q0 -50 20.5 -80 q20.5 -30 54.5 -30 q34 0 67 8 l0 245 l-70 0 l0 97 l177 0 l0 -420 q-87 -20 -176 -21 q-98 0 -141 55 q-39 50 -39 153 l0 422 q0 80 17 126 q17 49 56.5 71.5 q39.5 22.5 108.5 22.5 q87 0 130.5 -36.5 q43.5 -36.5 43.5 -115.5 l0 -76 l-107 0 ZM775 2691 l124 0 l157 -836 l-106 0 l-36 213 l-166 0 l-36 -213 l-106 0 l169 836 ZM764 2165 l135 0 l-66 403 l-2 0 l-67 -403 ZM1108 2691 l165 0 q60 0 94 -10.5 q34 -10.5 50.5 -35 q16.5 -24.5 22.5 -70.5 q5 -37 5 -112 q0 -61 -7 -93 q-8 -38 -29.5 -60.5 q-21.5 -22.5 -64.5 -36.5 l0 -2 q53 -6 76 -38 q21 -29 21 -90 l0 -181 q-1 -54 6 -107 l-100 0 q-16 36 -13 76 l0 188 q0 42 -6 61 q-6 22 -23.5 30.5 q-17.5 8.5 -53.5 8.5 l-36 0 l0 -364 l-107 0 l0 836 ZM1215 2316 l27 0 q45 0 63 9 q20 10 27 41 q7 26 7 92 q0 66 -5 90 q-4 29 -20 38 q-13 7 -48 7 l-51 0 l0 -277 ZM1666 2691 l123 0 l158 -836 l-107 0 l-36 213 l-166 0 l-35 -213 l-107 0 l170 836 ZM1654 2165 l135 0 l-66 403 l-2 0 l-67 -403 ZM1998 2691 l147 0 l127 -695 l2 0 l0 695 l100 0 l0 -836 l-154 0 l-126 713 l-2 0 l0 -713 l-94 0 l0 836 ZM2420 2691 l363 0 l0 -98 l-128 0 l0 -738 l-107 0 l0 738 l-128 0 l0 98 ZM2826 2691 l107 0 l0 -836 l-107 0 l0 836 ZM3009 2691 l291 0 l0 -98 l-184 0 l0 -261 l173 0 l0 -97 l-173 0 l0 -283 l184 0 l0 -97 l-291 0 l0 836 ZM3650 2520 l104 0 l133 -665 l-90 0 l-30 170 l-141 0 l-29 -170 l-91 0 l144 665 ZM3593 2699 l90 0 l62 -133 l-54 0 l-98 133 ZM3640 2102 l115 0 l-56 321 l-2 0 l-57 -321 ZM4041 2691 l107 0 l111 -664 l3 0 l111 664 l107 0 l-158 -836 l-124 0 l-157 836 ZM4524 2691 l107 0 l0 -836 l-107 0 l0 836 ZM4707 2691 l291 0 l0 -98 l-184 0 l0 -261 l173 0 l0 -97 l-173 0 l0 -283 l184 0 l0 -97 l-291 0 l0 836 Z" /><glyph glyph-name="eno_logo_grey" unicode="&#xea16;" d="M11594 2500 q0 -256 -118 -504 q-114 -242 -337 -469 q-219 -223 -535 -425 q-312 -199 -707.5 -369.5 q-395.5 -170.5 -858.5 -305.5 q-467 -136 -984 -231 q-528 -96 -1089 -145 q-575 -51 -1168 -51 q-593 0 -1168 51 q-561 49 -1088 145 q-518 95 -985 231 q-463 135 -858.5 305.5 q-395.5 170.5 -707.5 369.5 q-316 202 -535 425 q-223 227 -337 469 q-118 248 -118 504 q0 256 118 504 q114 242 337 469 q219 223 535 425 q312 199 707.5 369.5 q395.5 170.5 858.5 305.5 q467 136 984 231 q528 96 1089 145 q575 51 1168 51 q593 0 1168 -51 q561 -49 1088 -145 q518 -95 985 -231 q463 -135 858 -305.5 q395 -170.5 708 -369.5 q315 -202 534 -425 q223 -227 338 -469 q118 -248 118 -504 ZM10653 2500 q0 -356 -247 -690 q-240 -324 -690 -600 q-444 -272 -1051 -472 q-614 -203 -1333 -310 q-744 -112 -1535 -112 q-791 0 -1535 112 q-719 107 -1333 310 q-606 200 -1051 472 q-450 276 -689 600 q-248 334 -248 690 q0 356 248 690 q239 324 689 600 q445 272 1051 472 q614 203 1333 310 q744 112 1535 112 q791 0 1535 -112 q719 -107 1333 -310 q607 -200 1051 -472 q450 -276 690 -600 q247 -334 247 -690 ZM8423 1403 q-240 -6 -468.5 66 q-228.5 72 -421.5 215 q-374 280 -374 821 q0 538 372 820 q199 139 430 211 q226 70 463 70 q237 0 463 -70 q231 -72 430 -211 q373 -282 372 -820 q0 -541 -373 -821 q-194 -143 -423.5 -215 q-229.5 -72 -469.5 -66 ZM8423 1785 q114 -5 220 39.5 q106 44.5 182 129.5 q149 169 149.5 550.5 q0.5 381.5 -150.5 550.5 q-79 81 -183.5 125 q-104.5 44 -217.5 44 q-113 0 -217 -44 q-104 -44 -183 -125 q-149 -169 -149 -550.5 q0 -381.5 149 -550.5 q76 -85 181 -129.5 q105 -44.5 219 -39.5 ZM6886 1670 q-14 38 -21 66 l0 0 q-121 410 -119 837 q0 51 2 118 l0 4 q6 217 48 431 q14 70 30 138 q23 104 56 204 l19 52 q14 40 14 57 q0 18 -17 18 q-185 -42 -336 -157 q-107 -95 -182.5 -217 q-75.5 -122 -113.5 -261 q-18 -47 -42 -125 q-21 -69 -31 -92 q-17 -34 -38.5 -39 q-21.5 -5 -59.5 20 l-2 -3 l-8 10 q-111 89 -209 192 q-269 267 -675 462 q-264 127 -542 205 q-23 3 -46 3 q-10 0 -15 -13 q-4 -10 -3 -28 q103 -284 141 -585 q42 -309 18 -620.5 q-24 -311.5 -114 -610.5 l0 -1 l-8 -25 q-48 -126 -110 -246 q-11 -27 -8 -47 q3 -18 15 -23 q15 -3 30 2 q143 20 275 78 q132 58 243 149 q107 93 183.5 212.5 q76.5 119.5 114.5 255.5 q18 57 41 147 q16 67 24 89 q13 33 30.5 39 q17.5 6 48 -15.5 q30.5 -21.5 85.5 -76.5 q39 -39 135 -143 q209 -215 455 -384.5 q246 -169.5 521 -287.5 q99 -40 204 -64 l0 0 q15 -2 30 3.5 q15 5.5 -15 115.5 q-18 67 -47 155 l-1 1 ZM4118 1940 l-19 -5 l-1 0 q-330 -95 -673 -101 q-142 -4 -280 28.5 q-138 32.5 -264 99.5 q-107 57 -174 159 q-67 102 -77 223 l1375 0 q89 5 152 36 q92 46 106 142 q1 16 1 51 q12 211 -65 409 q-77 198 -228 347 q-163 144 -368.5 216.5 q-205.5 72.5 -422.5 60.5 q-170 2 -336 -32 q-166 -34 -321 -102 q-142 -62 -258.5 -164 q-116.5 -102 -196.5 -235 q-77 -130 -117 -276 q-40 -146 -39 -297 q-3 -210 76 -404 q78 -190 224 -336 q148 -148 343 -225 q170 -69 350 -102 q180 -33 364 -29 q249 0 495 48 q123 29 221 108.5 q98 79.5 151 194.5 q23 69 42 146 q5 31 -18 39 q-15 6 -42 0 ZM2776 3092 q76 68 172 102.5 q96 34.5 198 29.5 q479 0 479 -498 l-1016 0 q7 104 50.5 198.5 q43.5 94.5 116.5 168.5 l0 -1 Z" /><glyph glyph-name="facebook" unicode="&#xea17;" d="M3751 5000 l-650 0 q-271 0 -495 -87 q-220 -86 -379 -248.5 q-159 -162.5 -243 -388.5 q-85 -231 -85 -509 l0 -567 l-650 0 q-28 0 -52 -14 q-24 -14 -38 -38 q-14 -24 -14 -52 l0 -822 q0 -28 14 -52 q14 -24 38 -38 q24 -14 52 -14 l650 0 l0 -2076 q0 -28 14 -52 q14 -24 38 -38 q24 -14 52 -14 l853 0 q29 0 52.5 14 q23.5 14 37.5 38 q14 24 14 52 l0 2081 l765 0 q28 0 52 14 q24 14 38 38 q14 24 14 52 l0 822 q0 42 -31 73 q-31 31 -73 31 l-770 0 l0 479 q0 123 26 192 q30 80 105 117 q79 39 223 39 l437 0 q28 0 52 14 q24 14 38 38 q14 24 14 52 l0 760 q0 43 -28 73.5 q-28 30.5 -71 30.5 Z" /><glyph glyph-name="fast_delivery" unicode="&#xea18;" d="M4573 3546 q-29 41 -69 89 q-24 28 -73 84 l216 217 l211 -211 l86 87 l-507 507 l-87 -86 l211 -211 l-217 -216 q-252 247 -562 404 q-313 159 -663 215 q-124 24 -272 24 l0 427 l495 0 l0 124 l-1114 0 l0 -124 l495 0 l0 -427 q-340 -9 -659 -119 q-319 -110 -597 -314 q-140 -102 -260 -223 l-229 229 l210 211 l-87 86 l-507 -507 l87 -87 l210 211 l229 -229 q-204 -229 -339.5 -507.5 q-135.5 -278.5 -189.5 -581.5 q-55 -310 -22 -619 l124 12 q-37 366 53 724 q90 353 292 656 q205 308 503 526 q225 166 483 267 q255 100 528.5 130 q273.5 30 547.5 -13 q418 -65 771 -278 q353 -213 603 -551 q201 -276 304 -598 q100 -312 100 -641 q0 -325 -97 -635 q-99 -313 -288 -581 q-195 -276 -470.5 -478.5 q-275.5 -202.5 -598.5 -306.5 q-312 -101 -642 -100 q-325 0 -635 98 q-314 99 -581 288 q-276 196 -477 472 l-99 -80 q213 -292 505 -499 q282 -199 615 -303 q328 -102 675 -102 q348 0 679 108 q340 110 633 325 q238 177 420 403.5 q182 226.5 298 491.5 q117 268 160 560 q44 294 13 583.5 q-31 289.5 -135 558.5 q-105 273 -280 510 ZM1485 903 q172 -169 382 -287 q207 -117 438.5 -178 q231.5 -61 472.5 -61 l19 0 q371 5 708.5 149 q337.5 144 597.5 408 q210 216 340 485 q126 260 167 547 q40 284 -7 567 q-47 287 -179 544 q-137 265 -352 475 q-176 172 -389 292 q-211 118 -446.5 177.5 q-235.5 59.5 -482.5 56.5 q-372 -5 -709 -148.5 q-337 -143.5 -597 -408.5 q-200 -206 -328 -459 q-127 -250 -175 -526 q-48 -278 -11 -562 l124 19 q-31 265 15.5 524.5 q46.5 259.5 165.5 492.5 q121 237 308 431 q242 246 556.5 380.5 q314.5 134.5 662.5 138.5 l19 0 q340 0 652 -126 q314 -129 554 -369 q201 -197 328 -445 q124 -240 168 -508 q43 -264 5 -529 q-38 -268 -157 -511 q-122 -250 -319 -451 q-242 -246 -556.5 -380.5 q-314.5 -134.5 -662.5 -139.5 q-229 -3 -448.5 53 q-219.5 56 -415.5 167 q-198 112 -361 275 l-87 -93 ZM2785 1918 q85 0 157 42 q70 41 110 110 q42 72 42 158 q0 73 -32 137 q-32 63 -88.5 107 q-56.5 44 -126.5 59 l0 1058 l-124 0 l0 -1058 q-46 -9 -87 -31.5 q-41 -22.5 -74 -55.5 l-483 334 l-68 -99 l489 -334 q-19 -46 -19 -111 q-3 -85 38 -159 q39 -71 109 -113 q71 -44 157 -44 ZM2785 2413 q51 0 93.5 -24 q42.5 -24 67 -66.5 q24.5 -42.5 24.5 -94.5 q0 -52 -24.5 -94.5 q-24.5 -42.5 -67 -67 q-42.5 -24.5 -94 -24.5 q-51.5 0 -94 24.5 q-42.5 24.5 -67 67 q-24.5 42.5 -24.5 94.5 q0 52 24.5 94.5 q24.5 42.5 67 66.5 q42.5 24 94.5 24 ZM248 1795 l1547 0 l0 -124 l-1547 0 l0 124 ZM0 1485 l2042 0 l0 -124 l-2042 0 l0 124 ZM186 1238 l1114 0 l0 -124 l-1114 0 l0 124 Z" /><glyph glyph-name="french_made" unicode="&#xea19;" d="M495 2768 l0 103 l-477 0 l0 -760 l121 0 l0 320 l325 0 l0 96 l-325 0 l0 241 l356 0 ZM1152 2642 q0 72 -30.5 125 q-30.5 53 -88 81.5 q-57.5 28.5 -134.5 28.5 l-296 0 l0 -766 l121 0 l0 296 l163 0 l156 -296 l139 0 l-169 314 q65 23 104 81 q39 60 35 136 ZM1031 2612 q-3 -36 -23.5 -63 q-20.5 -27 -53 -39.5 q-32.5 -12.5 -67.5 -6.5 l-169 0 l0 277 l187 0 q35 -3 64 -22 q29 -19 45.5 -50 q16.5 -31 16.5 -66 l0 -30 ZM1695 2316 l72 -205 l127 0 l-278 766 l-126 0 l-278 -766 l121 0 l72 205 l290 0 ZM1550 2744 l0 0 l115 -337 l-230 0 l115 337 ZM2093 2672 l398 -561 l109 0 l0 760 l-115 0 l0 -561 l-6 0 l-398 561 l-109 0 l0 -760 l121 0 l0 561 ZM3064 2780 q47 3 91 -17.5 q44 -20.5 74.5 -59 q30.5 -38.5 39.5 -85.5 l121 0 q-12 80 -58.5 142.5 q-46.5 62.5 -116.5 95.5 q-71 33 -151 27 q-105 0 -184 -48 q-79 -48 -122 -135 q-44 -90 -44 -209.5 q0 -119.5 42.5 -209.5 q42.5 -90 121.5 -139 q79 -49 186 -49 q132 0 217.5 66 q85.5 66 108.5 187 l-121 0 q-12 -45 -42.5 -80 q-30.5 -35 -71.5 -52 q-44 -18 -91 -13 q-69 0 -121 36 q-52 36 -80 101.5 q-28 65.5 -28 152.5 q0 87 28 152.5 q28 65.5 80 101 q52 35.5 121 35.5 ZM3981 2768 l0 103 l-489 0 l0 -760 l489 0 l0 103 l-368 0 l0 235 l350 0 l0 96 l-350 0 l0 223 l368 0 ZM3552 3281 q-81 159 -189 297.5 q-108 138.5 -239 251.5 l356 772 l-108 48 l-344 -748 q-119 91 -260 157 l326 712 l-108 48 l-326 -712 l-20 9 q-41 17 -65 22 q-54 19 -169 50 l-36 10 l344 754 l-108 48 l-356 -772 q-256 40 -513 1 q-253 -38 -495 -152 q-264 -125 -475 -332 q-206 -204 -339 -464 l-428 0 l0 -121 l3981 0 l0 121 l-429 0 ZM1291 3969 q195 93 405.5 132 q210.5 39 422.5 21 q213 -18 414 -93 q284 -99 511 -293 q224 -191 370 -455 l-2853 0 q127 223 313 398 q187 177 417 290 ZM0 1773 l398 0 q167 -362 452 -603 l-349 -772 l108 -48 l338 742 q118 -91 259 -157 l-325 -706 l108 -48 l326 706 q3 0 9 -3 q6 -3 9 -3 q151 -61 271 -85 l-337 -748 l108 -48 l350 766 q127 -18 259 -18 q172 0 345.5 35.5 q173.5 35.5 336.5 103.5 q304 131 539 359 q236 230 372 527 l404 0 l0 121 l-3981 0 l0 -121 ZM2624 995 q-300 -127 -623.5 -130.5 q-323.5 -3.5 -625.5 118.5 q-279 113 -496 314.5 q-217 201.5 -348 469.5 l2913 0 q-128 -259 -338 -458 q-213 -201 -482 -314 Z" /><glyph glyph-name="grid" unicode="&#xea1a;" d="M1875 3125 l1250 0 l0 -1250 l-1250 0 l0 1250 ZM0 5000 l1250 0 l0 -1250 l-1250 0 l0 1250 ZM1875 1250 l1250 0 l0 -1250 l-1250 0 l0 1250 ZM0 3125 l1250 0 l0 -1250 l-1250 0 l0 1250 ZM0 1250 l1250 0 l0 -1250 l-1250 0 l0 1250 ZM3750 5000 l1250 0 l0 -1250 l-1250 0 l0 1250 ZM1875 5000 l1250 0 l0 -1250 l-1250 0 l0 1250 ZM3750 3125 l1250 0 l0 -1250 l-1250 0 l0 1250 ZM3750 1250 l1250 0 l0 -1250 l-1250 0 l0 1250 Z" /><glyph glyph-name="heart" unicode="&#xea1b;" d="M3650 4665 q-239 0 -462 -81 q-214 -79 -392 -225 q-176 -145 -295 -339 q-120 194 -297 339.5 q-177 145.5 -392 224.5 q-223 81 -462 81 q-275 0 -525 -106 q-243 -102 -429.5 -289 q-186.5 -187 -289.5 -429 q-106 -251 -106 -526 q0 -199 57 -389 q55 -183 160 -344 q104 -159 247 -283 l1913 -1914 q24 -25 56 -38 q32 -13 66.5 -13 q34.5 0 66.5 13 q32 13 56 38 l1914 1914 q143 124 247 283 q105 161 160 344 q57 190 57 389 q0 275 -106 526 q-103 242 -289.5 429 q-186.5 187 -429.5 289 q-250 106 -525 106 Z" /><glyph glyph-name="instagram" unicode="&#xea1c;" d="M5000 2500 q0 -518 0 -1036 q0 -321 -107 -535 q-56 -140 -134 -264 q-84 -133 -188 -236 q-116 -117 -223 -188 q-125 -83 -277 -134 q-63 -16 -162 -36 q-60 -11 -187 -35 q-127 -24 -186 -36 q-75 -15 -218 -16 q-89 0 -315 6 q-314 10 -503 10 l-1036 0 q-99 0 -211 21 q-67 13 -195 46 q-110 29 -165 40 q-119 48 -177 74 q-97 44 -170 90 q-86 55 -153 122 q-116 116 -188 223 q-83 125 -134 277 q0 102 -16 231 q-11 79 -39 249 l-16 91 q-15 90 -16 234 q0 89 6 308 q10 305 10 494 l0 1036 q0 99 21 211 q13 67 46 195 q29 110 40 165 q56 140 134 264 q84 133 188 236 q95 72 144 106 q81 57 152 98 q85 49 168 82 q178 36 272 53 q156 30 299 54 q90 15 234 16 q89 0 308 -6 q305 -10 494 -10 l1036 0 q321 0 535 -107 q140 -56 264 -134 q133 -84 236 -188 q117 -116 188 -223 q83 -125 134 -277 q24 -95 53 -258 q18 -99 54 -313 l0 -1000 ZM4536 1643 q0 339 0 678 l0 1036 q0 200 -23 371 q-19 146 -49 236 q-35 107 -103.5 199.5 q-68.5 92.5 -161.5 161 q-93 68.5 -199 104.5 q-90 30 -237 49 q-171 22 -370 22 l-1714 0 q-194 0 -358 -22 q-117 -16 -250 -49 q-141 -36 -242 -97 q-98 -60 -170 -152 q-68 -87 -123 -216 q-30 -90 -49 -236 q-23 -171 -23 -371 l0 -1714 q0 -194 23 -357 q16 -118 49 -250 q87 -176 192 -286 q121 -128 272 -179 q132 -33 250 -49 q164 -22 357 -22 l1714 0 q200 0 371 22 q147 19 237 49 q175 88 285 192 q128 121 179 273 q77 77 111 236 q32 144 32 371 ZM3143 3607 q148 -74 272 -205 q101 -106 192 -259 q86 -172 130 -322 q49 -168 49 -321 q0 -153 -49 -321 q-44 -150 -130 -322 q-74 -148 -205 -272 q-106 -101 -259 -192 q-172 -86 -322 -130 q-168 -49 -321 -49 q-153 0 -321 49 q-150 44 -322 130 q-148 74 -272 205 q-101 106 -192 259 q-86 172 -130 322 q-49 168 -49 321 q0 153 49 321 q44 150 130 322 q74 148 205 272 q106 101 259 192 q172 86 322 130 q168 49 321 49 q153 0 321 -49 q150 -44 322 -130 ZM3107 1893 q133 133 191.5 276 q58.5 143 58.5 331 q0 169 -58 317 q-63 161 -192 290 q-132 106 -290 161 q-154 53 -317 53 q-169 0 -317 -58 q-161 -63 -290 -192 q-105 -104 -161 -259 q-53 -147 -53 -312 q0 -169 58 -317 q63 -161 192 -290 q133 -133 275.5 -191.5 q142.5 -58.5 331.5 -58.5 q153 31 285 85 q163 66 286 165 ZM4036 4036 q-34 33 -72 50 q-31 14 -71 18 q-24 3 -71.5 3 q-47.5 0 -107.5 -22 q-35 -14 -107 -49 q-29 -29 -49 -76 q-22 -52 -22 -103 q0 -47 22 -107 q13 -36 49 -107 q33 -33 72 -50 q31 -15 71 -19 q24 -3 71.5 -3 q47.5 0 107.5 23 q35 13 107 49 q31 32 51 71 q12 24 28 71.5 q16 47.5 28 71.5 q0 56 -27 103 q-29 50 -80 76 Z" /><glyph glyph-name="life_garantee" unicode="&#xea1d;" d="M1951 2049 l-305 841 l-140 0 l-305 -841 l134 0 l80 225 l323 0 l79 -225 l134 0 ZM1445 2384 l128 372 l6 0 l128 -372 l-262 0 ZM1384 3134 l134 -177 l98 0 l-104 177 l-128 0 ZM2762 2890 l-232 -695 l-231 695 l-140 0 l298 -841 l141 0 l304 841 l-140 0 ZM2994 2890 l128 0 l0 -841 l-128 0 l0 841 ZM3280 2049 l537 0 l0 116 l-402 0 l0 262 l378 0 l0 103 l-378 0 l0 250 l402 0 l0 110 l-537 0 l0 -841 ZM1159 3841 l67 86 q-49 24 -101 23 q-52 -1 -98 -26 q-46 -25 -76 -70 q-45 -58 -53 -120 q-8 -62 21.5 -120.5 q29.5 -58.5 92.5 -107.5 q63 -51 127.5 -63.5 q64.5 -12.5 124 11.5 q59.5 24 108.5 83 q18 18 24 30 q31 48 33.5 102 q2.5 54 -22 103 q-24.5 49 -72.5 82 l-42 36 l-128 -170 l61 -49 l67 85 l12 -12 q33 -33 35 -77 q2 -44 -29 -76 q-37 -50 -97 -50 q-60 0 -129 50 q-63 50 -77 106.5 q-14 56.5 22 107.5 q18 31 54.5 41 q36.5 10 74.5 -5 ZM1348 4226 l146 -513 l91 61 l-36 122 l146 104 l104 -79 l91 67 l-433 311 l-109 -73 ZM1451 4183 l171 -134 l-110 -73 l-61 207 ZM2165 4439 q-23 73 -83.5 99 q-60.5 26 -142.5 -1 l-195 -67 l158 -482 l98 36 l-61 177 l79 25 l147 -147 l115 37 l104 6 l37 122 l177 6 l42 -122 l110 6 l-189 500 l-122 -6 l-159 -506 l-158 152 q35 31 46 78 q11 44 -3 87 ZM2500 4537 l0 0 l73 -208 l-134 0 l61 208 ZM2006 4299 l-85 -31 l-49 153 l79 30 q5 0 6.5 1 q1.5 1 5.5 5 q32 9 60.5 -6.5 q28.5 -15.5 37.5 -48.5 q0 -3 3 -6 q3 -3 3 -6 q5 -32 -12 -57 q-17 -25 -49 -34 ZM3134 4207 l0 6 l-140 378 l-85 25 l-135 -488 l98 -24 l85 317 l6 0 l141 -384 l79 -25 l140 488 l-97 30 l-92 -323 ZM3421 3866 l225 354 l122 -80 l49 80 l-341 207 l-43 -73 l122 -80 l-226 -353 l92 -55 ZM3566 3755 l345 370 l76 -71 l-345 -370 l-76 71 ZM4098 3945 l-403 -305 l201 -268 l67 55 l-134 183 l104 73 l128 -171 l61 49 l-128 171 l97 73 l141 -183 l67 55 l-201 268 ZM1049 1018 q42 -39 95 -51 q53 -12 105.5 3 q52.5 15 91.5 54 l43 37 l-140 159 l-55 -49 l73 -80 l-6 -6 l-3 0 q-3 -2 -3 -6 q-24 -18 -52.5 -20.5 q-28.5 -2.5 -55 9.5 q-26.5 12 -44.5 36 q-42 46 -31.5 105.5 q10.5 59.5 73.5 113.5 q60 55 117 58.5 q57 3.5 103 -46.5 q27 -27 31 -67.5 q4 -40.5 -19 -72.5 l73 -79 q33 42 41 94 q9 51 -7 100.5 q-16 49.5 -52 85.5 q-49 55 -108 75 q-59 20 -122.5 3 q-63.5 -17 -123.5 -72 q-91 -82 -100.5 -177 q-9.5 -95 64.5 -182 q-5 -5 -1 -12.5 q4 -7.5 13 -12.5 ZM1671 555 l122 524 l-104 67 l-421 -335 l92 -61 l97 85 l153 -97 l-31 -122 l92 -61 ZM1518 890 l165 140 l-55 -207 l-110 67 ZM2268 726 q23 72 -11 125.5 q-34 53.5 -117 81.5 l-201 61 l-146 -488 l103 -30 l55 176 l79 -24 l37 -207 l116 -37 l-43 226 q46 9 80.5 39.5 q34.5 30.5 47.5 76.5 ZM2165 756 q0 -4 -1 -6 q-1 -2 -5 -6 q-14 -27 -42 -39.5 q-28 -12.5 -56 -3.5 l-91 31 l42 152 l86 -24 l12 0 q32 -14 48 -43 q16 -29 7 -61 ZM2293 372 l109 0 l43 122 l177 0 l37 -122 l109 0 l-170 506 l-122 0 l-183 -506 ZM2537 780 l61 -207 l-135 0 l74 207 ZM3238 476 l85 24 l-134 488 l-98 -31 l86 -317 l-6 0 l-311 256 l-86 -24 l135 -488 l97 31 l-91 317 l6 0 l317 -256 ZM3579 634 l92 55 l-214 360 l122 73 l-42 73 l-342 -201 l43 -73 l128 73 l213 -360 ZM3549 1221 l78 68 l332 -382 l-78 -68 l-332 382 ZM4274 1262 l-67 55 l-146 -177 l-98 80 l135 164 l-61 55 l-141 -171 l-91 80 l146 176 l-67 55 l-213 -256 l390 -323 l213 262 ZM2268 4860 q383 48 759 -27 q363 -72 689 -254 q321 -179 574 -446 q256 -271 416 -605 q166 -346 215 -729 l122 12 q-51 405 -225 769 q-169 352 -439 637 q-266 281 -605 469 q-343 191 -725 267 q-396 79 -799 29 q-420 -52 -797 -238 q-368 -182 -659 -473 q-291 -291 -473 -660 q-188 -378 -242 -800 l122 -12 q50 399 228 758 q174 350 451.5 626.5 q277.5 276.5 628.5 449.5 q360 177 759 227 ZM2860 140 q-383 -48 -760 27 q-363 72 -690 254 q-322 179 -576 446 q-257 271 -418 605 q-166 346 -215 729 l-122 -12 q47 -373 200 -712 q148 -329 384 -604 q233 -270 533 -466 q301 -197 644 -301 q353 -106 721 -106 q152 0 317 18 q420 52 797 239 q368 182 659 473.5 q291 291.5 473 660.5 q188 378 242 798 l-122 12 q-52 -399 -231 -758 q-174 -350 -451 -626.5 q-277 -276.5 -627 -449.5 q-359 -177 -758 -227 Z" /><glyph glyph-name="linkedin" unicode="&#xea1e;" d="M979 625 l-907 0 l0 2921 l907 0 l0 -2921 ZM525 3944 q-106 0 -204 42 q-94 41 -167 114.5 q-73 73.5 -113 168.5 q-41 99 -41 205.5 q0 106.5 41 204.5 q40 94 113 167 q73 73 167 113 q97 41 204 41 q107 0 205 -41 q94 -40 166.5 -113 q72.5 -73 112.5 -167 q42 -98 42 -204.5 q0 -106.5 -42 -205.5 q-40 -95 -112.5 -168.5 q-72.5 -73.5 -166.5 -114.5 q-98 -42 -205 -42 ZM4374 625 l-905 0 l0 1422 q0 171 -8 264 q-14 149 -54 250 q-48 122 -140 186 q-105 73 -270 73 q-222 0 -350 -109 q-111 -95 -157 -276 q-36 -143 -36 -364 l0 -1446 l-907 0 l0 2921 l870 0 l0 -399 l13 0 q65 123 178 225 q126 113 289 176 q182 71 391 71 q333 0 557 -107 q208 -98 331 -293 q110 -176 158 -441 q41 -226 41 -549 l0 -1604 l-1 0 Z" /><glyph glyph-name="list-style" unicode="&#xea1f;" d="M2500 5000 q-400 0 -781 -130 q-368 -125 -685 -359 q-314 -231 -545 -545 q-234 -317 -359 -685 q-130 -381 -130 -781 q0 -400 130 -781 q125 -368 359 -685 q231 -314 545 -545 q317 -234 685 -359 q381 -130 781 -130 q400 0 781 130 q368 125 685 359 q314 231 545 545 q234 317 359 685 q130 381 130 781 q0 400 -130 781 q-125 368 -359 685 q-231 314 -545 545 q-317 234 -685 359 q-381 130 -781 130 ZM2500 1429 q-210 0 -408 87 q-191 83 -342 234 q-151 151 -234 342 q-87 198 -87 408 q0 210 87 408 q83 191 234 342 q151 151 342 234 q198 87 408 87 q210 0 408 -87 q191 -83 342 -234 q151 -151 234 -342 q87 -198 87 -408 q0 -210 -87 -408 q-83 -191 -234 -342 q-151 -151 -342 -234 q-198 -87 -408 -87 Z" /><glyph glyph-name="list" unicode="&#xea20;" d="M796 3637 l-683 0 q-46 0 -79.5 -33.5 q-33.5 -33.5 -33.5 -79.5 l0 -682 q0 -46 33.5 -79.5 q33.5 -33.5 79.5 -33.5 l683 0 q46 0 79.5 33.5 q33.5 33.5 33.5 79.5 l0 682 q0 46 -33.5 79.5 q-33.5 33.5 -79.5 33.5 ZM796 909 l-683 0 q-46 0 -79.5 -33.5 q-33.5 -33.5 -33.5 -79.5 l0 -682 q0 -46 33.5 -79.5 q33.5 -33.5 79.5 -33.5 l683 0 q46 0 79.5 33.5 q33.5 33.5 33.5 79.5 l0 682 q0 46 -33.5 79.5 q-33.5 33.5 -79.5 33.5 ZM796 2272 l-683 0 q-46 0 -79.5 -33.5 q-33.5 -33.5 -33.5 -79.5 l0 -681 q0 -46 33.5 -80 q33.5 -34 79.5 -34 l683 0 q46 0 79.5 34 q33.5 34 33.5 80 l0 681 q0 46 -33.5 79.5 q-33.5 33.5 -79.5 33.5 ZM796 5000 l-683 0 q-46 0 -79.5 -33.5 q-33.5 -33.5 -33.5 -79.5 l0 -683 q0 -46 33.5 -79.5 q33.5 -33.5 79.5 -33.5 l683 0 q46 0 79.5 33.5 q33.5 33.5 33.5 79.5 l0 683 q0 46 -33.5 79.5 q-33.5 33.5 -79.5 33.5 ZM6250 909 l-4772 0 q-46 0 -80 -33.5 q-34 -33.5 -34 -79.5 l0 -682 q0 -46 34 -79.5 q34 -33.5 80 -33.5 l4772 0 q46 0 79.5 33.5 q33.5 33.5 33.5 79.5 l0 682 q0 46 -33.5 79.5 q-33.5 33.5 -79.5 33.5 ZM6250 2272 l-4772 0 q-46 0 -80 -33.5 q-34 -33.5 -34 -79.5 l0 -681 q0 -46 34 -80 q34 -34 80 -34 l4772 0 q46 0 79.5 34 q33.5 34 33.5 80 l0 681 q0 46 -33.5 79.5 q-33.5 33.5 -79.5 33.5 ZM6330 4966 q-34 34 -80 34 l-4772 0 q-46 0 -80 -33.5 q-34 -33.5 -34 -79.5 l0 -683 q0 -46 34 -79.5 q34 -33.5 80 -33.5 l4772 0 q46 0 79.5 33.5 q33.5 33.5 33.5 79.5 l0 683 q0 46 -33 79 ZM6250 3637 l-4772 0 q-46 0 -80 -33.5 q-34 -33.5 -34 -79.5 l0 -682 q0 -46 34 -79.5 q34 -33.5 80 -33.5 l4772 0 q46 0 79.5 33.5 q33.5 33.5 33.5 79.5 l0 682 q0 46 -33.5 79.5 q-33.5 33.5 -79.5 33.5 Z" /><glyph glyph-name="lock" unicode="&#xea21;" d="M3646 3125 l-313 0 l0 417 q0 296 -115 567 q-111 261 -313 463 q-202 202 -463 313 q-271 115 -567 115 q-296 0 -567 -115 q-261 -111 -463 -313 q-202 -202 -313 -463 q-115 -271 -115 -567 l0 -417 l-313 0 q-28 0 -52 -14 q-24 -14 -38 -38 q-14 -24 -14 -52 l0 -2605 q0 -113 57 -210 q55 -94 149 -149 q98 -57 211 -57 l2917 0 q113 0 210 57 q94 55 150 149 q57 98 57 211 l0 2604 q-1 43 -31.5 73.5 q-30.5 30.5 -73.5 30.5 ZM2187 949 q2 -22 -5 -43 q-7 -21 -21.5 -38 q-14.5 -17 -35 -26 q-20.5 -9 -42.5 -9 l-417 0 q-22 0 -42.5 9 q-20.5 9 -35 26 q-14.5 17 -21.5 38 q-7 21 -4 43 l65 591 q-80 58 -125.5 146.5 q-45.5 88.5 -45.5 188.5 q0 113 57 210 q55 95 149 150 q98 57 211 57 q113 0 211 -57 q94 -55 149 -149 q57 -98 57 -211 q0 -101 -45 -189 q-45 -88 -126 -146 l67 -591 ZM2708 3125 l-1666 0 l0 417 q0 169 66 324 q63 150 178.5 265 q115.5 115 264.5 179 q155 65 324 65 q169 0 324 -66 q149 -63 264.5 -178.5 q115.5 -115.5 178.5 -264.5 q66 -155 66 -324 l0 -417 Z" /><glyph glyph-name="mail" unicode="&#xea22;" d="M5000 3818 q0 139 -54 265 q-51 123 -145.5 217.5 q-94.5 94.5 -217.5 145.5 q-126 54 -265 54 l-3636 0 q-139 0 -265 -54 q-123 -51 -217.5 -145.5 q-94.5 -94.5 -145.5 -217.5 q-54 -126 -54 -265 l0 -2736 q0 -139 54 -265 q51 -123 145.5 -217.5 q94.5 -94.5 217.5 -145.5 q126 -54 265 -54 l3636 0 q139 0 265 54 q123 51 217.5 145.5 q94.5 94.5 145.5 217.5 q54 126 54 265 l0 2736 ZM700 4050 l3637 0 q65 -2 118.5 -37.5 q53.5 -35.5 81.5 -93.5 l-2018 -1419 l-2019 1420 q28 58 82 93 q54 35 118 37 ZM4337 850 l-3637 0 q-65 1 -120.5 33 q-55.5 32 -90 85.5 q-34.5 53.5 -39.5 118.5 l0 2290 l1927 -1340 q62 -42 136 -41 q70 0 126 41 l1911 1340 l0 -2290 q3 -45 -12 -87.5 q-15 -42.5 -45 -75.5 q-30 -33 -70.5 -52.5 q-40.5 -19.5 -85.5 -21.5 Z" /><glyph glyph-name="menu" unicode="&#xea23;" d="M6786 2857 l-6429 0 q-106 0 -187 -44.5 q-81 -44.5 -125.5 -125.5 q-44.5 -81 -44.5 -187 q0 -106 44.5 -187 q44.5 -81 125.5 -125.5 q81 -44.5 187 -44.5 l6429 0 q106 0 187 44.5 q81 44.5 125.5 125.5 q44.5 81 44.5 187 q0 106 -44.5 187 q-44.5 81 -125.5 125.5 q-81 44.5 -187 44.5 ZM357 4286 l6429 0 q106 0 187 44.5 q81 44.5 125.5 125.5 q44.5 81 44.5 187 q0 106 -44.5 187 q-44.5 81 -125.5 125.5 q-81 44.5 -187 44.5 l-6429 0 q-106 0 -187 -44.5 q-81 -44.5 -125.5 -125.5 q-44.5 -81 -44.5 -187 q0 -106 44.5 -187 q44.5 -81 125.5 -125.5 q81 -44.5 187 -44.5 ZM6786 714 l-6429 0 q-106 0 -187 -44.5 q-81 -44.5 -125.5 -125.5 q-44.5 -81 -44.5 -187 q0 -106 44.5 -187 q44.5 -81 125.5 -125.5 q81 -44.5 187 -44.5 l6429 0 q106 0 187 44.5 q81 44.5 125.5 125.5 q44.5 81 44.5 187 q0 106 -44.5 187 q-44.5 81 -125.5 125.5 q-81 44.5 -187 44.5 Z" /><glyph glyph-name="minus-circle" unicode="&#xea24;" d="M1500 2378 l2000 0 l0 476 l-2000 0 l0 -476 ZM2500 711 q-325 0 -632 97 q-296 94 -548 271 q-250 175 -434 413 q-185 241 -284 523 q-102 291 -102 601 q0 310 102 601 q99 282 284 523 q184 238 434 413 q252 176 548 270 q307 98 632 98 q325 0 631 -98 q296 -94 549 -270 q250 -175 434 -413 q185 -241 284 -523 q102 -291 102 -601 q0 -310 -102 -601 q-99 -282 -284 -523 q-184 -238 -434 -413 q-253 -177 -549 -271 q-306 -97 -631 -97 l0 0 ZM2500 4997 q-407 0 -790 -122 q-370 -117 -686 -338 q-313 -217 -542 -515 q-231 -301 -355 -653 q-127 -365 -127 -753 q0 -388 127 -753 q124 -352 355 -653 q229 -298 542 -516 q316 -220 686 -338 q383 -121 790 -121 q407 0 790 121 q370 118 686 338 q313 218 542 516 q231 301 355 653 q127 365 127 753 q0 388 -127 753 q-124 352 -355 653 q-229 297 -542 515 q-316 221 -686 338 q-383 122 -790 122 l0 0 Z" /><glyph glyph-name="pencil" unicode="&#xea25;" d="M3 153 q-9 -40 9 -76 q18 -36 54 -54 q36 -18 77 -8 l1133 275 l-1016 1017 l-257 -1154 ZM535 1583 l1016 -1018 l2575 2575 l-1017 1018 l-2574 -2575 ZM4898 4403 l-454 453 q-86 86 -203 117 q-115 30 -229 0 q-118 -31 -204 -117 l-435 -435 l1017 -1017 l507 507 q67 67 91 158 q24 88 1 176 q-24 91 -91 158 Z" /><glyph glyph-name="pinterest" unicode="&#xea26;" d="M1201 2283 q5 13 65 243 l8 29 q-38 57 -72 167 q-36 114 -58 252 q-23 151 -23 297 q0 165 30 304 q32 207 156 376 q114 155 298 267 q173 104 389 159 q209 53 428 53 l0 2 q270 -1 500 -74 q230 -73 398 -213 q172 -143 264 -342 q95 -207 95 -460 q0 -206 -59 -423 q-61 -224 -172 -405 q-120 -195 -276 -304 q-173 -119 -371 -119 l-1 0 q-96 0 -206 26 q-105 26 -189 66 q-86 42 -119 86 q-57 76 -70.5 168 q-13.5 92 16.5 192 l28 91 q63 199 93 300 q50 169 77 293 q34 150 40 255 q6 115 -42 206 q-46 87 -133.5 135.5 q-87.5 48.5 -196.5 48.5 q-88 0 -174 -35 q-96 -38 -172 -114 q-85 -87 -135 -213 q-66 -166 -64.5 -342 q1.5 -176 69.5 -368 q22 -61 -67 -415 q-48 -192 -144 -521 l-49 -164 q-101 -344 -147 -518 q-77 -294 -111 -501 q-40 -253 -21 -411 l44 -357 l218 286 q123 162 267 486 q112 251 235 597 q68 193 163 485 l33 101 q110 -143 308 -227 q146 -62 327 -87 q101 -14 184 -14 q219 0 443.5 83.5 q224.5 83.5 423.5 237.5 q204 158 354 370 q159 223 241 481 q88 276 81 571 q-8 337 -132 630 q-126 298 -358 519 q-241 229 -574 352 q-351 129 -778 129 l0 -1 q-407 0 -748 -105 q-322 -99 -571 -286 q-237 -179 -392 -427 q-150 -241 -211 -527 q-53 -251 -28 -487 q23 -218 110 -405 q82 -175 209 -301 q123 -123 269 -178 ZM1201 2283 l0 0 Z" /><glyph glyph-name="plain-star" unicode="&#xea27;" d="M2500 4878 l-724 -1633 l-1776 -184 l1329 -1193 l-374 -1746 l1545 895 l1545 -895 l-374 1746 l1329 1193 l-1776 184 l-724 1633 Z" /><glyph glyph-name="plus-circle" unicode="&#xea28;" d="M2700 3647 l-391 0 l0 -953 l-953 0 l0 -391 l953 0 l0 -953 l391 0 l0 953 l953 0 l0 391 l-953 0 l0 953 ZM2500 4844 q-394 12 -769 -100 q-362 -108 -675 -323 q-310 -212 -541 -507 q-234 -299 -366 -653 q-135 -367 -149 -761 q14 -394 149 -761 q132 -354 366 -653 q231 -295 541 -507 q313 -215 675 -323 q375 -112 769 -100 q394 -12 769 100 q362 108 675 323 q310 212 541 507 q234 299 366 653 q135 367 149 761 q-14 394 -149 761 q-132 354 -366 653 q-231 295 -541 507 q-313 215 -675 323 q-375 112 -769 100 ZM2500 547 q-331 -12 -645 80 q-305 89 -569 267 q-260 176 -456 423 q-198 249 -310 546 q-116 306 -129 637 q13 331 129 637 q112 297 310 546 q196 247 456 423 q264 178 569 267 q314 92 645 80 q331 12 645 -80 q305 -89 569 -267 q260 -176 456 -423 q198 -249 310 -546 q116 -306 129 -637 q-13 -331 -129 -637 q-112 -297 -310 -546 q-196 -247 -456 -423 q-264 -178 -569 -267 q-314 -92 -645 -80 Z" /><glyph glyph-name="print" unicode="&#xea29;" d="M1333 1000 l0 -1000 l2667 0 l0 1667 l-2667 0 l0 -667 ZM1667 1333 l2000 0 l0 -333 l-2000 0 l0 333 ZM1667 667 l2000 0 l0 -334 l-2000 0 l0 334 ZM4000 4000 l0 1000 l-2667 0 l0 -1667 l2667 0 l0 667 ZM4667 4000 l-334 0 l0 -1000 l-3333 0 l0 1000 l-333 0 q-122 0 -245 -57 q-117 -55 -213.5 -151.5 q-96.5 -96.5 -151.5 -213.5 q-57 -123 -57 -245 l0 -1666 q0 -122 57 -245 q55 -117 151.5 -213.5 q96.5 -96.5 213.5 -151.5 q123 -57 245 -57 l333 0 l0 1000 l3333 0 l0 -1000 l334 0 q122 0 244 57 q118 55 214 151.5 q96 96.5 151 213.5 q57 123 57 245 l0 1666 q0 122 -57 245 q-55 117 -151 213.5 q-96 96.5 -214 151.5 q-122 57 -244 57 Z" /><glyph glyph-name="reload" unicode="&#xea2a;" d="M4647 2385 l-601 0 q-35 0 -63 -16 q-28 -16 -44.5 -44.5 q-16.5 -28.5 -16.5 -63.5 q0 -293 -112 -559 q-108 -257 -305.5 -454.5 q-197.5 -197.5 -454.5 -305.5 q-266 -112 -558.5 -112 q-292.5 0 -559.5 115 q-256 110 -454 309 q-198 199 -306 456 q-112 265 -112 551 q0 293 112 560 q108 257 305.5 454.5 q197.5 197.5 454.5 305.5 q266 112 559 112 q84 0 124 -3 q64 -3 124 -15 l0 -406 q0 -37 22 -67 q18 -24 48 -39 q36 -12 69 -5 q20 5 55 22 l795 813 q26 26 35 56.5 q9 30.5 0 58 q-9 27.5 -35 44.5 l-795 795 q-9 25 -27 40.5 q-18 15.5 -39.5 18.5 q-21.5 3 -39.5 -6 q-30 -15 -49 -40 q-22 -29 -22 -66 l0 -371 q-59 12 -123 15 q-40 3 -124 3 q-370 0 -719 -117 q-337 -113 -625 -324 q-285 -209 -494 -494 q-212 -289 -325 -626 q-116 -349 -116 -719 q0 -370 114 -716 q112 -336 320 -621 q207 -283 489 -489 q286 -209 621 -320 q347 -115 717 -115 q370 0 717 116 q335 113 621 324 q282 208 489 491 q209 286 320 620 q115 345 115 710 q0 35 -15.5 63 q-15.5 28 -40 44.5 q-24.5 16.5 -50.5 16.5 Z" /><glyph glyph-name="resselers" unicode="&#xea2b;" d="M4988 1174 q-68 74 -266 74 l-31 13 l12 124 l0 37 l-18 105 q-6 18 -10 27 q-7 14 -15 22 l-43 56 l25 6 q37 14 58.5 44 q21.5 30 21.5 67 l0 99 q0 21 -6 39 q-6 22 -19 35 l-105 111 l25 50 q24 59 0 99 l-105 235 q-15 28 -40.5 48 q-25.5 20 -52.5 20 l223 432 l98 62 q46 27 56 87 l105 747 q3 28 -7.5 56 q-10.5 28 -31 48 q-20.5 20 -47.5 26 l-927 260 l-483 216 l-556 544 q-24 24 -58 31 q-34 7 -65 -6 l-285 -112 q-27 -9 -48 -33.5 q-21 -24.5 -26 -52.5 q-28 -139 -18 -278 q-12 -28 -114 -87 q-56 -32 -165 -86 l-8 -5 q-89 -46 -120 -64 q-47 -28 -67.5 -51.5 q-20.5 -23.5 -20.5 -52.5 q0 -62 37 -99 q-55 -37 -99 -56 q-121 17 -214 36 q-73 14 -107 26 q-3 6 -6.5 26.5 q-3.5 20.5 -5.5 29.5 l-1 3 q-8 45 -14 67 q-10 35 -25 56 q-19 26 -47 35 q-28 9 -73.5 11.5 q-45.5 2.5 -86.5 -3.5 q-45 -6 -69 -21 q-18 -9 -27.5 -22 q-9.5 -13 -9.5 -28 q-4 -12 -1 -38 q5 -43 29 -150 q29 -130 90 -368 l6 -12 q-19 0 -31 -6 q-124 -7 -358 -7 l-93 118 q-25 24 -54 35 q-33 11 -64 2 l-543 -117 q-46 -10 -72 -49.5 q-26 -39.5 -21 -86.5 l49 -316 q5 -28 23 -53.5 q18 -25.5 45 -38.5 l859 -396 l-12 -55 q-4 -17 -2 -38 q2 -12 8 -37 l309 -680 l-105 -1131 l-93 -123 q-24 -33 -24 -87 q11 -57 49 -80 l420 -291 q14 -8 31 -13 q17 -5 31 -5 l420 -19 q32 0 59.5 13 q27.5 13 46.5 37 q49 -15 192 -77 q155 -68 327 -152 l11 -4 q23 -8 38 -8 l0 0 q134 2 221 6 q85 4 136 11 q47 6 72 15 q22 9 31 21 q5 8 10 27 l6 13 l0 12 q-9 137 -49 290 l340 266 l815 -229 q28 -9 55 -4 q27 5 50 23 q223 166 369 292 q124 106 192 182 q52 59 71 99 q11 23 11 45 q25 57 -18 111 ZM4308 550 l-816 229 q-48 16 -105 -19 l-352 -272 q-28 -18 -40.5 -52.5 q-12.5 -34.5 -3.5 -70.5 q17 -65 39 -201 l5 -28 q-82 -9 -346 -19 q-293 142 -440 200 q-107 41 -148 41 q-9 0 -11.5 -0.5 q-2.5 -0.5 -6.5 -5.5 q-23 -4 -41 -17 q-18 -13 -27 -32 l-420 18 l-415 291 l93 123 q15 23 25 62 l105 1131 q0 20 -2 31 q-2 19 -10 31 l-309 674 l12 62 q9 41 -11 78 q-20 37 -57 51 l-853 402 l-49 309 l531 118 l99 -112 q20 -19 41 -31 q23 -12 46 -12 q247 0 370 6 q41 0 75 12 q54 18 74 62 q13 26 7 58 q-4 27 -20 47 l-18 78 q-38 156 -54 224 q-26 113 -33 162 q23 5 48.5 5 q25.5 0 44.5 -5 q5 -15 8.5 -35 q3.5 -20 3.5 -33 q5 -45 16 -74 q12 -34 34 -56 l2 -1 q15 -10 35 -18 q35 -12 106 -27 q91 -19 240 -40 q18 -5 35.5 -1.5 q17.5 3.5 32.5 13.5 q110 50 155 94 q52 51 30 104 q-8 16 -18 29 q-6 8 -19 20 l-6 6 q93 56 142 81 q119 59 177 93 q88 53 129 98 q49 53 40 105 q-5 67 -3 121 q3 64 16 121 l284 98 l556 -537 q11 -11 16 -15 q7 -6 15 -10 l482 -216 q3 0 9.5 -3.5 q6.5 -3.5 9.5 -3.5 l921 -259 l-105 -742 l-99 -62 q-15 -10 -27 -23 q-12 -13 -17 -26 l-228 -445 q-13 -25 -13 -49 q0 -31 15 -58 q15 -27 41 -43.5 q26 -16.5 56 -16.5 l105 -229 l-25 -49 q-14 -32 -10.5 -63.5 q3.5 -31.5 22.5 -60.5 l93 -117 l6 -87 l-31 -12 q-6 -3 -15 -9 q-9 -6 -16 -9 q-24 -19 -36 -49 q-12 -30 -7.5 -62 q4.5 -32 25.5 -56 l49 -62 l19 -105 l-12 -130 q-5 -41 15.5 -75.5 q20.5 -34.5 58.5 -48.5 l37 -12 q12 -6 43 -6 q63 0 111 -9 q50 -10 68 -28 l6 -6 q-12 -29 -85 -101 q-78 -77 -204 -182 q-140 -117 -316 -249 ZM2812 2200 l-463 563 l-93 -81 l556 -680 l1199 1478 l-99 74 l-1100 -1354 ZM3628 2738 q48 -162 28 -329 q-18 -162 -97 -305.5 q-79 -143.5 -205 -245.5 q-131 -107 -293.5 -152.5 q-162.5 -45.5 -326 -28 q-163.5 17.5 -311.5 96 q-148 78.5 -251.5 208.5 q-103.5 130 -150 292 q-46.5 162 -29 325 q17.5 163 96.5 311.5 q79 148.5 208.5 252 q129.5 103.5 292.5 150.5 q182 51 363 23 q183 -29 335 -135 l68 106 q-175 120 -387 152 q-212 32 -416 -29 q-186 -56 -334.5 -173.5 q-148.5 -117.5 -241 -284.5 q-92.5 -167 -114 -355.5 q-21.5 -188.5 34 -373.5 q55.5 -185 173 -333.5 q117.5 -148.5 284.5 -240.5 q104 -59 224 -89 q114 -29 233 -29 q136 0 266 37 q186 55 336 177 q144 118 234.5 282 q90.5 164 113.5 350 q23 191 -29 378 l-105 -37 Z" /><glyph glyph-name="search" unicode="&#xea2c;" d="M4925 438 l-925 925 q219 275 342 601 q120 317 141 656 q21 335 -57 661 q-78 331 -250 622 q-178 300 -440.5 534.5 q-262.5 234.5 -581.5 376.5 q-309 137 -646 178 q-333 40 -664 -19 q-334 -60 -634 -215 q-311 -160 -559.5 -408.5 q-248.5 -248.5 -408.5 -559.5 q-155 -300 -215 -634 q-59 -331 -19 -664 q41 -337 178 -646 q142 -319 376.5 -581.5 q234.5 -262.5 534.5 -440.5 q291 -172 622 -250 q326 -78 661 -57 q339 21 656 141 q326 123 602 342 l925 -925 q49 -46 114 -61.5 q65 -15.5 129 2.5 q64 18 112 66 q48 48 66 112 q18 64 2.5 129 q-15.5 65 -61.5 114 l0 1 ZM513 2757 q0 259 76 507 q74 243 215.5 454.5 q141.5 211.5 337.5 372.5 q200 165 440 264.5 q240 99.5 498 124.5 q253 24 502 -25.5 q249 -49.5 474 -168.5 q228 -122 412 -305.5 q184 -183.5 305 -412.5 q119 -225 168.5 -474 q49.5 -249 25.5 -502 q-24 -258 -123.5 -498 q-99.5 -240 -264.5 -440 q-162 -196 -373.5 -337 q-211.5 -141 -454.5 -216 q-248 -76 -508 -75 q-281 0 -546 88 q-256 86 -475 246 q-216 159 -375 375 q-160 219 -245 475 q-89 265 -89 546 l0 1 Z" /><glyph glyph-name="secured_payment" unicode="&#xea2d;" d="M3025 2963 l0 883 q0 234 -91 448 q-88 207 -248.5 367 q-160.5 160 -369.5 248 q-215 91 -451.5 91 q-236.5 0 -451.5 -91 q-207 -88 -366.5 -247.5 q-159.5 -159.5 -246.5 -367.5 q-90 -214 -90 -448 l0 -883 l-710 0 l0 -2963 l3704 0 l0 2963 l-679 0 ZM833 3846 q0 209 82 400 q78 185 221 328 q143 143 328 221 q191 82 400 82 q212 0 404 -82 q187 -78 330 -221 q143 -143 222 -328 q81 -191 81 -400 l0 -883 l-2068 0 l0 883 ZM3580 2840 l0 -2031 l-3457 0 l0 2031 l3457 0 ZM3580 691 l0 -185 l-3457 0 l0 185 l3457 0 ZM123 123 l0 254 l3457 0 l0 -254 l-3457 0 ZM1636 1605 l0 -309 q0 -57 29.5 -107 q29.5 -50 79 -79.5 q49.5 -29.5 107 -29.5 q57.5 0 107.5 29.5 q50 29.5 79.5 79.5 q29.5 50 29.5 107 l0 309 q98 56 157 156 q59 102 59 220.5 q0 118.5 -59 219.5 q-56 97 -154 154 q-101 59 -219 59 l0 0 q-119 0 -219 -59 q-98 -57 -155 -154 q-58 -101 -58 -219.5 q0 -118.5 59 -220.5 q58 -100 157 -156 ZM1852 2284 q0 0 0 0 q85 0 157 -42 q69 -40 110 -110 q41 -72 41 -157 q0 -89 -48 -165 q-48 -76 -131 -112 l-37 -19 l0 -383 q0 -24 -12.5 -45.5 q-12.5 -21.5 -34 -34 q-21.5 -12.5 -45.5 -12.5 q-24 0 -45.5 12.5 q-21.5 12.5 -34.5 34 q-13 21.5 -13 45.5 l0 383 l-37 19 q-82 36 -130.5 112 q-48.5 76 -48.5 165 q0 85 42 157 q40 70 110 110 q72 42 157 42 Z" /><glyph glyph-name="tooltip" unicode="&#xea2e;" d="M1000 455 q0 -124 62 -230 q60 -103 163 -163 q106 -62 229.5 -62 q123.5 0 229.5 62 q103 60 163 163 q62 106 62 229.5 q0 123.5 -62 229.5 q-60 103 -163 163 q-106 62 -229.5 62 q-123.5 0 -229.5 -62 q-103 -60 -163 -163 q-62 -106 -62 -229 ZM1455 5000 q-296 0 -566 -115 q-261 -110 -462.5 -311.5 q-201.5 -201.5 -311.5 -462.5 q-115 -270 -115 -566 q0 -98 50 -183 q48 -82 130 -130 q85 -50 183.5 -50 q98.5 0 183.5 50 q82 48 130 130 q50 85 50 183 q0 148 57 284 q56 130 156.5 230.5 q100.5 100.5 230.5 156.5 q136 57 284 57 q148 0 283 -57 q130 -56 231 -156.5 q101 -100.5 156 -230.5 q57 -136 57 -284 q0 -148 -57 -283 q-55 -130 -156 -231 q-101 -101 -231 -156 q-135 -57 -283 -57 q-99 0 -184 -50 q-82 -48 -130 -130 q-50 -85 -50 -183 l0 -910 q0 -98 50 -183 q48 -82 130 -130 q85 -50 183.5 -50 q98.5 0 183.5 50 q82 48 130 130 q50 85 50 183 l0 591 q233 61 435 194 q199 131 346 318 q148 189 228 415 q82 233 82 482 q0 296 -114 566 q-111 261 -312.5 462.5 q-201.5 201.5 -462.5 311.5 q-270 115 -565 115 Z" /><glyph glyph-name="twitter" unicode="&#xea2f;" d="M4486 3518 q3 -44 3 -133 q0 -411 -122 -823 q-125 -421 -361 -788 q-248 -385 -592 -668 q-367 -302 -814 -463 q-480 -173 -1026 -173 q-429 0 -835 120 q-393 117 -739 340 q110 -13 247 -13 q354 0 684 115 q320 112 589 323 q-222 4 -420 98 q-192 90 -333 250 q-141 160 -205 362 q105 -16 193 -16 q135 0 270 35 q-175 36 -327 128 q-149 90 -260.5 225 q-111.5 135 -172.5 299 q-62 171 -62 354 l0 13 q104 -58 220 -91 q119 -35 243 -39 q-138 92 -241 224.5 q-103 132.5 -159 290.5 q-57 163 -57 338 q0 140 37 273 q35 128 103 244 q253 -312 583 -544 q333 -234 716 -368 q394 -138 814 -160 q-25 122 -25 235 q0 208 80 398 q77 184 219 326 q142 142 326 220 q190 80 399 80 q218 0 415 -86 q191 -85 334 -237 q173 33 338 96 q164 63 312 151 q-56 -177 -173 -323 q-117 -146 -277 -241 q296 31 590 158 q-105 -153 -235 -287 q-130 -134 -279 -243 Z" /><glyph glyph-name="user" unicode="&#xea30;" d="M4268 1768 q-204 203 -445 354 q-239 149 -506 241 q191 131 332 315 q142 186 218 406 q78 228 78 471 q0 293 -113 562 q-110 259 -310.5 459 q-200.5 200 -459.5 310 q-268 114 -562 114 q-294 0 -562 -114 q-259 -110 -459.5 -310 q-200.5 -200 -310.5 -459 q-113 -269 -113 -562 q0 -243 78 -470 q76 -221 218 -407 q141 -184 332 -315 q-267 -92 -506 -241 q-241 -151 -445 -354 q-235 -235 -400 -520 q-163 -282 -247.5 -598.5 q-84.5 -316.5 -84.5 -649.5 l391 0 q0 343 107 666 q104 312 300 579 q193 264 457 457 q267 196 579 300 q323 107 666 107 q343 0 666 -107 q312 -104 579 -300 q264 -193 457 -457 q196 -267 300 -579 q107 -323 107 -666 l391 0 q0 333 -84.5 649.5 q-84.5 316.5 -247.5 598.5 q-165 285 -400 520 ZM2500 2500 q-214 0 -410 83 q-190 80 -336 226 q-146 146 -226 335 q-83 196 -83 410.5 q0 214.5 83 410.5 q80 189 226 335 q146 146 336 226 q196 83 410 83 q214 0 410 -83 q190 -80 336 -226 q146 -146 226 -335 q83 -196 83 -410.5 q0 -214.5 -83 -410.5 q-80 -189 -226 -335 q-146 -146 -336 -226 q-196 -83 -410 -83 Z" /><glyph glyph-name="youtube" unicode="&#xea31;" d="M4805 3958 q-91 108 -237 174 q-148 66 -372 97 q-220 31 -541 31 l-2310 0 q-328 0 -553 -33 q-228 -33 -378 -104 q-148 -70 -238 -186 q-64 -80 -102 -187 q-35 -98 -52 -228 q-15 -112 -19 -272 q-3 -98 -3 -318 l0 -866 q0 -282 31 -476 q35 -220 115 -371 q86 -162 234 -266 q155 -107 389 -159 q238 -54 576 -54 l2310 0 q278 0 475 27 q200 28 341 87 q140 57 239 152 q102 98 165.5 240 q63.5 142 93.5 345 q29 199 29 475 l0 866 q1 281 -9 431 q-13 204 -53 340 q-44 152 -131 255 ZM3210 2381 l-1049 -549 q-33 -17 -74 -17 q-44 0 -84 22 q-36 22 -56.5 59 q-20.5 37 -20.5 80 l0 1093 q0 43 20.5 79.5 q20.5 36.5 56.5 58 q36 21.5 78.5 23 q42.5 1.5 79.5 -18.5 l1049 -545 q40 -21 63.5 -59.5 q23.5 -38.5 23.5 -83.5 q0 -45 -23.5 -83.5 q-23.5 -38.5 -63.5 -58.5 Z" /></font>
</defs>
</svg>
